Crazy World Only 4 You

Sorry For The Inconvenience. If You are facing link dead or no google drive file access then inform us via comment

Latest Updates

Thursday, 24 May 2018

Table No.5 (2018) Ep01-06 Hindi 720p WEB HD - AVC - AAC

Table No.5 (ZEE5 Originals) - 6 Episodes - 720p WEBHD - DTOne


Source:-  DTOne

General
Complete name                            : Episode 2.mp4
Format                                   : MPEG-4
Format profile                           : Base Media
Codec ID                                 : isom (isom/iso2/avc1/mp41)
File size                                : 53 MiB
Duration                                 : 8 min 50 s
Overall bit rate                         : 901 kb/s
Writing application                      : Lavf56.40.101

Video
ID                                       : 1
Format                                   : AVC
Format/Info                              : Advanced Video Codec
Format profile                           : High@L4
Format settings                          : CABAC / 4 Ref Frames
Format settings, CABAC                   : Yes
Format settings, RefFrames               : 4 frames
Codec ID                                 : avc1
Codec ID/Info                            : Advanced Video Coding
Duration                                 : 8 min 50 s
Bit rate                                 : 834 kb/s
Nominal bit rate                         : 3 000 kb/s
Width                                    : 1 280 pixels
Height                                   : 720 pixels
Display aspect ratio                     : 16:9
Frame rate mode                          : Constant
Frame rate                               : 25.000 FPS
Color space                              : YUV
Chroma subsampling                       : 4:2:0
Bit depth                                : 8 bits
Scan type                                : Progressive
Bits/(Pixel*Frame)                       : 0.055
Stream size                              : 179 MiB (98%)
Writing library                          : x264 core 152 r2854 e9a5903

Audio
ID                                       : 2
Format                                   : AAC
Format/Info                              : Advanced Audio Codec
Format profile                           : LC
Codec ID                                 : mp4a-40-2
Duration                                 : 8 min 50 s
Bit rate mode                            : Constant
Bit rate                                 : 61.0 kb/s
Channel(s)                               : 2 channels
Channel positions                        : Front: L R
Sampling rate                            : 48.0 kHz
Frame rate                               : 46.875 FPS (1024 SPF)
Compression mode                         : Lossy
Stream size                              : 3.86 MiB (2%)
Default                                  : Yes
Alternate group                          : 1









No comments:

Post a Comment