Crazy World Only 4 You

Sorry For The Inconvenience. If You are facing link dead or no google drive file access then inform us via comment

Latest Updates

Tuesday, 22 May 2018

The Break-Up (2006) BluRay 720p x264 [Dual Audio] [Hindi DD 5.1 - Eng 2.0] AAC Esub -=!Katyayan!=-


Poster


iMDB
Imdb Picture Title: The Break-Up
Year: 2006
Runtime: 106 minutes
Votes: 111482
Rating: 5.8/10
Language: English
Country: USA
All Genres: Comedy, Drama, Romance
Plot Outline: In Chicago, the art dealer Brooke Meyers feels not appreciated and neglected by her immature boyfriend Gary Grobowski, who is partner with his two brothers in a tourism business, and decides to break-up with him to make Gary miss her. Gary misunderstands her true intention, both follow the wrong advice of family members and friends, beginning a war of sexes with no winner. Written by Claudio Carvalho, Rio de Janeiro, Brazil
Tagline: An Ex-Rated Comedy
Director: Peyton Reed
Writing By: Jeremy Garelick,Jay Lavender,Vince Vaughn,Jeremy Garelick,Jay Lavender,
Produced By: Stuart M. Besser,Peter Billingsley,Jeremy Garelick,John Isbell,Jay Lavender,Scott Stuber,Victoria Vaughn,Vince Vaughn,
Music: Jon Brion
Cast:
Vince Vaughn as Gary Grobowski
Jennifer Aniston as Brooke Meyers
Joey Lauren Adams as Addie
Cole Hauser as Lupus Grobowski
Jon Favreau as Johnny O
Jason Bateman as Riggleman
Judy Davis as Marilyn Dean
Justin Long as Christopher
Ivan Sergei as Carson Wigham
John Michael Higgins as Richard Meyers
Trailers:
The Break-Up



Details
Name:The Break-Up (2006) BluRay 720p x264 [Dual Audio] [Hindi DD 5.1 - Eng 2.0] AAC Esub -=!Katyayan...
Description:
The Break-Up (2006) BluRay 720p x264 [Dual Audio] [Hindi DD 5.1 - Eng 2.0] AAC Esub -=!Katyayan!=-

 

Format                                   : Matroska
Format version                           : Version 4 / Version 2
File size                                : 824 MiB
Duration                                 : 1 h 46 min
Overall bit rate                         : 1 081 kb/s
Movie name                               : The Break-Up (2006) BluRay 720p x264 [Dual Audio] [Hindi DD 5.1 - Eng 2.0] AAC Esub -=!Katyayan!=-

Video
ID                                       : 1
Format                                   : AVC
Format/Info                              : Advanced Video Codec
Format profile                           : High@L4
Format settings                          : CABAC / 6 Ref Frames
Format settings, CABAC                   : Yes
Format settings, RefFrames               : 6 frames
Codec ID                                 : V_MPEG4/ISO/AVC
Duration                                 : 1 h 46 min
Bit rate                                 : 823 kb/s
Width                                    : 1 280 pixels
Height                                   : 694 pixels
Display aspect ratio                     : 1.85:1
Frame rate mode                          : Constant
Frame rate                               : 23.976 (24000/1001) FPS
Color space                              : YUV
Chroma subsampling                       : 4:2:0
Bit depth                                : 8 bits
Scan type                                : Progressive
Bits/(Pixel*Frame)                       : 0.039
Stream size                              : 627 MiB (76%)
Title                                    : The Break-Up (2006) BluRay 720p x264 [Dual Audio] [Hindi DD 5.1 - Eng 2.0] AAC Esub -=!Katyayan!=-
Writing library                          : x264 core 120 r2164 da19765
Language                                 : English
Default                                  : Yes
Forced                                   : Yes

Audio #1
ID                                       : 2
Format                                   : AAC
Format/Info                              : Advanced Audio Codec
Format profile                           : LC
Codec ID                                 : A_AAC-2
Duration                                 : 1 h 46 min
Bit rate                                 : 192 kb/s
Channel(s)                               : 6 channels
Channel positions                        : Front: L C R, Side: L R, LFE
Sampling rate                            : 48.0 kHz
Frame rate                               : 46.875 FPS (1024 SPF)
Compression mode                         : Lossy
Delay relative to video                  : 3 s 350 ms
Stream size                              : 146 MiB (18%)
Title                                    : -=!Katyayan!=-
Language                                 : Hindi
Default                                  : Yes
Forced                                   : Yes

Audio #2
ID                                       : 3
Format                                   : AAC
Format/Info                              : Advanced Audio Codec
Format profile                           : HE-AAC / LC
Format settings                          : Explicit
Codec ID                                 : A_AAC-2
Duration                                 : 1 h 46 min
Bit rate                                 : 64.0 kb/s
Channel(s)                               : 2 channels
Channel positions                        : Front: L R
Sampling rate                            : 48.0 kHz / 24.0 kHz
Frame rate                               : 23.438 FPS (1024 SPF)
Compression mode                         : Lossy
Stream size                              : 48.8 MiB (6%)
Title                                    : -=!Katyayan!=-
Language                                 : English
Default                                  : No
Forced                                   : No

Text
ID                                       : 4
Format                                   : UTF-8
Codec ID                                 : S_TEXT/UTF8
Codec ID/Info                            : UTF-8 Plain Text
Duration                                 : 1 h 45 min
Bit rate                                 : 102 b/s
Count of elements                        : 1747
Stream size                              : 79.0 KiB (0%)
Title                                    : -=!Katyayan!=-
Language                                 : English
Default                                  : Yes
Forced                                   : Yes

 

Category:Movies > Hollywood Dub
Lang:Hindi
Total Size:824.03 MB



|| Download This Movie Via Single Resumable Links Size: 824 MB ||

Direct-1 Google Drive | Direct-2 | Direct-3 |

Watch Online Click Here

No comments:

Post a Comment