Crazy World Only 4 You

Sorry For The Inconvenience. If You are facing link dead or no google drive file access then inform us via comment

Latest Updates

Tuesday, 8 May 2018

The Magnificent Seven (2016) BluRay 720p x264 Dual Audio [Hindi-English] [AAC.5.1] - Hon3y


Poster
c0c73974495f974489f81fd8db31c8d9.jpg


iMDB
Imdb Picture Title: The Magnificent Seven
Year: 2016
Runtime: 132 minutes
Votes: 127831
Rating: 6.9/10
Language: English, North American Indian, Spanish
Country: USA
All Genres: Action, Adventure, Western
Plot Outline: Seven gunmen in the old west gradually come together to help a poor village against savage thieves.
Tagline: Justice has a number.
Director: Antoine Fuqua
Writing By: Akira Kurosawa,Shinobu Hashimoto,Hideo Oguni,Nic Pizzolatto,Richard Wenk,
Produced By: Bruce Berman,Roger Birnbaum,Todd Black,Antoine Fuqua,Walter Mirisch,Kat Samick,Ben Waisbren,
Music: Simon Franglen James Horner
Plot:
Director Antoine Fuqua brings his modern vision to a classic story in The Magnificent Seven. With the town of Rose Creek under the deadly control of industrialist Bartholomew Bogue, the desperate townspeople employ protection from seven outlaws, bounty hunters, gamblers and hired guns. As they prepare the town for the violent showdown that they know is coming, these seven mercenaries find themselves fighting for more than money.
The residents of a small town are being pressured by a man, Bartholomew Bogue to sell him their land for a paltry price. They gather together at the church to meet about how they should handle Bogue. Bogue shows up and then burns the church, one of the citizens stands up to Bogue and Bogue kills him. The man's wife then heads off to find help. And while at a town, she sees a man take out some men all by himself. She then approaches him and asks for his help. The man, Sam Chisolm is not interested till he is told about Bogue. He recruits a man whom he saw handle himself quite well. The man, Faraday says yes and they recruit or come across some other men of skill and they total seven. They go to the town and take care of Bogue's men. Chisolm sends one of Bogue's men to give Bogue a message. Chisolm then talks to the town telling them, they need to get ready because Bogue will be back with an army.
- Written by rcs0411@yahoo.com
Seven gunmen in the old west gradually come together to help a poor village against savage thieves.

Cast:
Denzel Washington as Chisolm
Chris Pratt as Josh Faraday
Ethan Hawke as Goodnight Robicheaux
Vincent D'Onofrio as Jack Horne
Byung-hun Lee as Billy Rocks
Manuel Garcia-Rulfo as Vasquez
Martin Sensmeier as Red Harvest
Haley Bennett as Emma Cullen
Peter Sarsgaard as Bartholomew Bogue
Luke Grimes as Teddy Q
Trailers:
Trailer #2
Trailer #1

Details
Name:The.Magnificent.Seven.2016.720p.BluRay.x264.Dual-Audio[Hindi-English][AAC.5.1].-.Hon3y
Description:

The.Magnificent.Seven.2016.720p.BluRay.x264.Dual-Audio[Hindi-English][AAC.5.1].-.Hon3y

9465f6026da10d77c2f93c58ac7b3062.jpg

General
Format                      : Matroska
Format version              : Version 4 / Version 2
File size                   : 1.15 GiB
Duration                    : 2 h 12 min
Overall bit rate            : 1 237 kb/s
Movie name                  : Hon3yHD

Video
ID                          : 1
Format                      : AVC
Format/Info                 : Advanced Video Codec
Format profile              : High@L4.1
Format settings, CABAC      : Yes
Format settings, ReFrames   : 12 frames
Codec ID                    : V_MPEG4/ISO/AVC
Duration                    : 2 h 12 min
Bit rate                    : 1 009 kb/s
Width                       : 1 280 pixels
Height                      : 536 pixels
Display aspect ratio        : 2.40:1
Frame rate mode             : Constant
Frame rate                  : 23.976 (24000/1001) FPS
Color space                 : YUV
Chroma subsampling          : 4:2:0
Bit depth                   : 8 bits
Scan type                   : Progressive
Bits/(Pixel*Frame)          : 0.061
Stream size                 : 959 MiB (82%)
Title                       : Hon3yHD


Hindi Audio Credits:  Dipen Patel & Invincible Rajat-Thanks Guys

Audio #1
ID                          : 2
Format                      : AAC
Format/Info                 : Advanced Audio Codec
Format profile              : HE-AAC / LC
Codec ID                    : A_AAC
Duration                    : 2 h 12 min
Bit rate                    : 128 kb/s
Channel(s)                  : 6 channels
Channel positions           : Front: L C R, Side: L R, LFE
Sampling rate               : 48.0 kHz / 24.0 kHz
Frame rate                  : 23.438 FPS (1024 spf)
Compression mode            : Lossy
Delay relative to video     : 31 ms
Stream size                 : 121 MiB (10%)
Title                       : Hindi-Hon3yHD
Language                    : Hindi
Default                     : Yes
Forced                      : Yes

Audio #2
ID                          : 3
Format                      : AAC
Format/Info                 : Advanced Audio Codec
Format profile              : HE-AAC / LC
Codec ID                    : A_AAC
Duration                    : 2 h 12 min
Bit rate                    : 96.0 kb/s
Channel(s)                  : 6 channels
Channel positions           : Front: L C R, Side: L R, LFE
Sampling rate               : 48.0 kHz / 24.0 kHz
Frame rate                  : 23.438 FPS (1024 spf)
Compression mode            : Lossy
Delay relative to video     : 31 ms
Stream size                 : 91.0 MiB (8%)
Title                       : English-Hon3yHD
Language                    : English
Default                     : No
Forced                      : No

Text
ID                          : 4
Format                      : UTF-8
Codec ID                    : S_TEXT/UTF8
Codec ID/Info               : UTF-8 Plain Text
Duration                    : 2 h 6 min
Bit rate                    : 58 b/s
Count of elements           : 1835
Stream size                 : 54.1 KiB (0%)
Title                       : English-Hon3yHD
Language                    : English
Default                     : No
Forced                      : No

Menu
00:00:00.000                : :Chapter 01
00:04:53.710                : :Chapter 02
00:11:28.187                : :Chapter 03
00:18:12.591                : :Chapter 04
00:25:17.849                : :Chapter 05
00:31:55.955                : :Chapter 06
00:36:53.794                : :Chapter 07
00:42:05.856                : :Chapter 08
00:50:23.520                : :Chapter 09
00:59:57.844                : :Chapter 10
01:06:49.630                : :Chapter 11
01:16:08.438                : :Chapter 12
01:23:25.792                : :Chapter 13
01:34:06.766                : :Chapter 14
01:44:19.711                : :Chapter 15
01:54:47.296                : :Chapter 16


                       
Category:Movies > Hollywood Dub
Lang:Hindi
Total Size:1.15 GB




:download:

|| Download This Movie Via Single Resumable Links Size: 1.15 GB ||

Direct-1 Google Drive | Direct-2 | Direct-3 |

Watch Online Click Here

No comments:

Post a Comment