Crazy World Only 4 You

Sorry For The Inconvenience. If You are facing link dead or no google drive file access then inform us via comment

Latest Updates

Tuesday, 8 May 2018

The Princess and the Frog (2009) BluRay 720p x264 Dual Audio [Eng-Hindi] AC3 DD2.0 [Team SSX]


Poster
8468b0b2cf4f98c8adbbfa7c0c6391a1.jpg


iMDB
Imdb Picture Title: The Princess and the Frog
Year: 2009
Runtime: 97 minutes
Votes: 100838
Rating: 7.1/10
Language: English, French
Country: USA
All Genres: Animation, Adventure, Comedy, Family, Fantasy, Musical, Romance
Plot Outline: A waitress, desperate to fulfill her dreams as a restaurant owner, is set on a journey to turn a frog prince back into a human being, but she has to face the same problem after she kisses him.
Director: Ron Clements
John Musker
Writing By: Ron Clements,John Musker,Greg Erb,Jason Oremland,Ron Clements,John Musker,Rob Edwards,E.D. Baker,
Produced By: Peter Del Vecho,Aghi D. Koh,John Lasseter,Craig Sost,
Music: Randy Newman
Cast:
Anika Noni Rose as Tiana
Bruno Campos as Prince Naveen
Keith David as Dr. Facilier
Michael-Leon Wooley as Louis
Jennifer Cody as Charlotte La Bouff
Jim Cummings as Ray
Peter Bartlett as Lawrence
Jenifer Lewis as Mama Odie
Oprah Winfrey as Eudora
Terrence Howard as James
Trailers:
The Princess and the Frog: Trailer #1
The Princess and the Frog: Teaser Trailer


Details
Name:The Princess and the Frog (2009) BluRay 720p x264 Dual Audio [Eng-Hindi] AC3 DD2.0 [Team SSX]
Description:
The Princess and the Frog 2009 720p BluRay x264 Eng-Hindi AC3 DD2.0 [Team SSX]


General

Format                                   : Matroska
Format version                           : Version 4 / Version 2
File size                                : 790 MiB
Duration                                 : 1 h 38 min
Overall bit rate                         : 1 122 kb/s


Video
ID                                       : 1
Format                                   : AVC
Format/Info                              : Advanced Video Codec
Format profile                           : High@L4
Codec ID                                 : V_MPEG4/ISO/AVC
Duration                                 : 1 h 37 min
Bit rate                                 : 905 kb/s
Width                                    : 1 280 pixels
Height                                   : 720 pixels
Display aspect ratio                     : 16:9
Frame rate mode                          : Constant
Frame rate                               : 23.976 (24000/1001) FPS
Color space                              : YUV
Chroma subsampling                       : 4:2:0
Bit depth                                : 8 bits
Scan type                                : Progressive
Bits/(Pixel*Frame)                       : 0.041
Stream size                              : 631 MiB (80%)
Default                                  : Yes
Forced                                   : No

Audio #1
ID                                       : 2
Format                                   : AAC
Format/Info                              : Advanced Audio Codec
Format profile                           : LC
Codec ID                                 : A_AAC-2
Duration                                 : 1 h 37 min
Bit rate                                 : 96.0 kb/s
Channel(s)                               : 2 channels
Channel positions                        : Front: L R
Sampling rate                            : 48.0 kHz
Frame rate                               : 46.875 FPS (1024 SPF)
Compression mode                         : Lossy
Delay relative to video                  : -83 ms
Stream size                              : 66.9 MiB (8%)
Language                                 : English
Default                                  : No
Forced                                   : No

Audio #2
ID                                       : 3
Format                                   : AC-3
Format/Info                              : Audio Coding 3
Codec ID                                 : A_AC3
Duration                                 : 1 h 38 min
Bit rate mode                            : Constant
Bit rate                                 : 128 kb/s
Channel(s)                               : 2 channels
Channel positions                        : Front: L R
Sampling rate                            : 48.0 kHz
Frame rate                               : 31.250 FPS (1536 SPF)
Bit depth                                : 16 bits
Compression mode                         : Lossy
Delay relative to video                  : -83 ms
Stream size                              : 90.1 MiB (11%)
Language                                 : Hindi
Service kind                             : Complete Main
Default                                  : Yes
Forced                                   : No






Category:Movies > Hollywood Dub
Lang:Hindi
Total Size:789.57 MB



:download:

|| Download This Movie Via Single Resumable Links Size: 790 MB ||

Direct-1 Google Drive | Direct-2 | Direct-3 |

Watch Online Click Here

No comments:

Post a Comment