Crazy World Only 4 You

Sorry For The Inconvenience. If You are facing link dead or no google drive file access then inform us via comment

Latest Updates

Thursday, 31 May 2018

The Princess Diaries (2001) BluRay 720p x264 Dual Audio [Hindi - English] DD2.0 ~ Esub ~ Ranvijay


Poster


iMDB
Imdb Picture Title: The Princess Diaries
Year: 2001
Runtime: 111 minutes
Votes: 108050
Rating: 6.3/10
Language: English, Dutch, Italian
Country: USA
All Genres: Comedy, Family, Romance
Plot Outline: Mia Thermopolis is the average teenager - sweet, a little geeky and pretty much invisible to everyone with the exception of her mother, best friend Lilly and Lilly's older brother Michael. Making it through high school without throwing up is a challenge in itself for Mia, so it doesn't come as welcome news when her estranged grandmother shows up out of the blue and calmly informs her that she is in fact the heir to the throne of a European country called Genovia. Suddenly Mia's life is thrown into complete overload. She's being taught about scarves, waves and pears in order to become a perfect princess, she gets a makeover and a tough looking yet sweet bodyguard/limo driver called Joe. Things get out of hand when the media gets a hold of the story and suddenly Mia is thrust into the spotlight in both the newspapers and in school. On top of all that Mia has a choice to make. She must decide by Genovia's Independence Day Ball whether she longs to relinquish her claim on the throne or to... Written by LadyN1
Tagline: She rocks. She rules. She reigns.
Director: Garry Marshall
Writing By: Meg Cabot,Gina Wendkos,
Produced By: Debra Martin Chase,Whitney Houston,Mario Iscovich,Ellen H. Schwartz,
Music: John Debney
Cast:
Julie Andrews as Queen Clarisse Renaldi
Anne Hathaway as Mia Thermopolis
Hector Elizondo as Joe
Heather Matarazzo as Lilly Moscovitz
Mandy Moore as Lana Thomas
Caroline Goodall as Mia's Mom, Helen
Robert Schwartzman as Michael Moscovitz
Erik von Detten as Student Josh Bryant
Patrick John Flueger as Student Jeremiah Hart
Sean O'Bryan as Teacher Mr. O'Connell
Trailers:
The Princess Diaries: Special Edition


Details
Name:The Princess Diaries (2001) BluRay 720p x264 Dual Audio [Hindi - English] DD2.0 ~ Esub ~ Ranvij...
Description:
The Princess Diaries (2001) BluRay 720p x264 Dual Audio [Hindi - English] DD2.0 ~ Esub ~ Ranvijay



Thanks To Hammer For Hindi Audio

Format                                   : Matroska
Format version                           : Version 4 / Version 2
File size                                : 1 002 MiB
Duration                                 : 1 h 55 min
Overall bit rate                         : 1 212 kb/s
Movie name                               : The Princess Diaries (2001) 720p BluRay x264 Dual Audio [Hindi - English] DD2.0 ~ Esub ~ Ranvijay
Encoded date                             : UTC 2018-05-30 23:38:04
Writing application                      : mkvmerge v23.0.0 ('The Bride Said No') 64-bit
Writing library                          : libebml v1.3.6 + libmatroska v1.4.9

Video
ID                                       : 1
Format                                   : AVC
Format/Info                              : Advanced Video Codec
Format profile                           : High@L4.1
Format settings                          : CABAC / 5 Ref Frames
Format settings, CABAC                   : Yes
Format settings, RefFrames               : 5 frames
Codec ID                                 : V_MPEG4/ISO/AVC
Duration                                 : 1 h 51 min
Bit rate                                 : 1 053 kb/s
Width                                    : 1 280 pixels
Height                                   : 720 pixels
Display aspect ratio                     : 16:9
Frame rate mode                          : Constant
Frame rate                               : 23.976 (24000/1001) FPS
Color space                              : YUV
Chroma subsampling                       : 4:2:0
Bit depth                                : 8 bits
Scan type                                : Progressive
Bits/(Pixel*Frame)                       : 0.048
Stream size                              : 843 MiB (84%)
Title                                    : ~Ranvijay~

Audio #1
ID                                       : 2
Format                                   : E-AC-3
Format/Info                              : Enhanced Audio Coding 3
Codec ID                                 : A_EAC3
Duration                                 : 1 h 55 min
Bit rate mode                            : Constant
Bit rate                                 : 128 kb/s
Channel(s)                               : 2 channels
Channel positions                        : Front: L R
Sampling rate                            : 48.0 kHz
Frame rate                               : 187.500 FPS (256 SPF)
Compression mode                         : Lossy
Delay relative to video                  : -83 ms
Stream size                              : 106 MiB (11%)
Title                                    : ~Ranvijay~
Language                                 : Hindi
Service kind                             : Complete Main
Default                                  : Yes
Forced                                   : No

Audio #2
ID                                       : 3
Format                                   : AAC
Format/Info                              : Advanced Audio Codec
Format profile                           : LC
Codec ID                                 : A_AAC-2
Duration                                 : 1 h 51 min
Bit rate                                 : 64.6 kb/s
Channel(s)                               : 2 channels
Channel positions                        : Front: L R
Sampling rate                            : 48.0 kHz
Frame rate                               : 46.875 FPS (1024 SPF)
Compression mode                         : Lossy
Delay relative to video                  : -83 ms
Stream size                              : 51.6 MiB (5%)
Title                                    : ~Ranvijay~
Default                                  : No
Forced                                   : No

Text
ID                                       : 4
Format                                   : UTF-8
Codec ID                                 : S_TEXT/UTF8
Codec ID/Info                            : UTF-8 Plain Text
Duration                                 : 1 h 52 min
Bit rate                                 : 70 b/s
Count of elements                        : 1558
Stream size                              : 58.0 KiB (0%)
Title                                    : ~Ranvijay~
Language                                 : English
Default                                  : Yes
Forced                                   : No

                   

Category:Movies > Hollywood Dub
Lang:Hindi
Total Size:1.01 GB



|| Download This Movie Via Single Resumable Links Size: 1002 MB ||

Direct-1 Google Drive | Direct-2 | Direct-3 |

Watch Online Click Here

No comments:

Post a Comment