Crazy World Only 4 You

Sorry For The Inconvenience. If You are facing link dead or no google drive file access then inform us via comment

Latest Updates

Friday, 1 June 2018

The Purge 3 Election Year (2016) BluRay 720p x264 [Dual Audio] [Hindi DD 5.1 - Eng] AAC Esub -=!Katyayan!=-


Poster


iMDB
Imdb Picture Title: The Purge: Election Year
Year: 2016
Runtime: 108 minutes
Votes: 66670
Rating: 6.0/10
Language: English
Country: USA, France
All Genres: Action, Horror, Sci-Fi, Thriller
Plot Outline: It's been seventeen years since Leo Barnes (Frank Grillo) stopped himself from a regrettable act of revenge on Purge Night. Now serving as head of security for Senator Charlie Roan (Elizabeth Mitchell), his mission is to protect her in a run for president and survive the annual ritual that targets the poor and innocent. But when a betrayal forces them onto the streets of D.C. on the one night when no help is available, they must stay alive until dawn...or both be sacrificed for their sins against the state.
Tagline: Purge for the Glory
Director: James DeMonaco
Writing By: James DeMonaco,
Produced By: Michael Bay,Jason Blum,Phillip Dawe,Luc Etienne,Andrew Form,Bradley Fuller,Sebastien Lemercier,Couper Samuelson,Jeanette Volturno,
Music: Nathan Whitehead
Cast:
Frank Grillo as Leo Barnes
Elizabeth Mitchell as Senator Charlie Roan
Mykelti Williamson as Joe Dixon
Joseph Julian Soria as Marcos
Betty Gabriel as Laney Rucker
Terry Serpico as Earl Danzinger
Edwin Hodge as Dante Bishop
Kyle Secor as Minister Edwidge Owens
Barry Nolan as Reporter #1
Liza Colón-Zayas as Dawn
Trailers:
Trailer #2
Official Trailer



Details
Name:

The Purge- Election Year (2016) BluRay 720p x264 [Dual Audio] [Hindi DD 5.1 - Eng] AAC Esub -=!...
Description:
The Purge- Election Year (2016) BluRay 720p x264 [Dual Audio] [Hindi DD 5.1 - Eng] AAC Esub -=!Katyayan!=-



-=====================Credit=====================-

:::::::::::::::::::> Video ---- ETRG
:::::::::::::::::::> Audio ---- Hammer






Format                                   : Matroska
Format version                           : Version 4 / Version 2
File size                                : 921 MiB
Duration                                 : 1 h 48 min
Overall bit rate                         : 1 183 kb/s
Movie name                               : The Purge- Election Year (2016) BluRay 720p x264 [Dual Audio] [Hindi DD 5.1 - Eng] AAC Esub -=!Katyayan!=-
Attachments                              : -=!Katyayan!=-

Video
ID                                       : 1
Format                                   : AVC
Format/Info                              : Advanced Video Codec
Format profile                           : High@L4.1
Format settings                          : CABAC / 5 Ref Frames
Format settings, CABAC                   : Yes
Format settings, RefFrames               : 5 frames
Codec ID                                 : V_MPEG4/ISO/AVC
Duration                                 : 1 h 48 min
Bit rate                                 : 949 kb/s
Width                                    : 1 280 pixels
Height                                   : 536 pixels
Display aspect ratio                     : 2.40:1
Frame rate mode                          : Constant
Frame rate                               : 23.976 (24000/1001) FPS
Color space                              : YUV
Chroma subsampling                       : 4:2:0
Bit depth                                : 8 bits
Scan type                                : Progressive
Bits/(Pixel*Frame)                       : 0.058
Stream size                              : 738 MiB (80%)
Title                                    : The Purge- Election Year (2016) BluRay 720p x264 [Dual Audio] [Hindi DD 5.1 - Eng] AAC Esub -=!Katyayan!=-
Writing library                          : x264 core 148 r2638 7599210
Language                                 : English
Default                                  : Yes
Forced                                   : No
Color range                              : Limited
Color primaries                          : BT.709
Matrix coefficients                      : BT.709

Audio #1
ID                                       : 2
Format                                   : AAC
Format/Info                              : Advanced Audio Codec
Format profile                           : LC
Codec ID                                 : A_AAC-2
Duration                                 : 1 h 48 min
Bit rate                                 : 192 kb/s
Channel(s)                               : 6 channels
Channel positions                        : Front: L C R, Side: L R, LFE
Sampling rate                            : 48.0 kHz
Frame rate                               : 46.875 FPS (1024 SPF)
Compression mode                         : Lossy
Delay relative to video                  : 457 ms
Stream size                              : 150 MiB (16%)
Title                                    : -=!Katyayan!=-
Language                                 : Hindi
Default                                  : Yes
Forced                                   : Yes

Audio #2
ID                                       : 3
Format                                   : AAC
Format/Info                              : Advanced Audio Codec
Format profile                           : HE-AAC / LC
Format settings                          : Explicit
Codec ID                                 : A_AAC-2
Duration                                 : 1 h 8 min
Bit rate                                 : 64.0 kb/s
Channel(s)                               : 2 channels
Channel positions                        : Front: L R
Sampling rate                            : 48.0 kHz / 24.0 kHz
Frame rate                               : 23.438 FPS (1024 SPF)
Compression mode                         : Lossy
Delay relative to video                  : 31 ms
Stream size                              : 31.4 MiB (3%)
Title                                    : -=!Katyayan!=-
Language                                 : English
Default                                  : No
Forced                                   : No

Text
ID                                       : 4
Format                                   : UTF-8
Codec ID                                 : S_TEXT/UTF8
Codec ID/Info                            : UTF-8 Plain Text
Duration                                 : 1 h 43 min
Bit rate                                 : 55 b/s
Count of elements                        : 1251
Stream size                              : 42.2 KiB (0%)
Title                                    : -=!Katyayan!=-
Language                                 : English
Default                                  : Yes
Forced                                   : Yes

 
Category:Movies > Hollywood Dub
Lang:Hindi
Total Size:921.39 MB


|| Download This Movie Via Single Resumable Links Size: 921 MB ||

Direct-1 Google Drive | Direct-2 | Direct-3 |

Watch Online Click Here

No comments:

Post a Comment