Crazy World Only 4 You

Sorry For The Inconvenience. If You are facing link dead or no google drive file access then inform us via comment

Latest Updates

Tuesday, 22 May 2018

Under the Skin (2013) BluRay 720p Dual Audio [English - Hindi] Esub


Poster
73f5e5daac2850bff66dbb98a022ebfc.jpg


iMDB
Imdb Picture Title: Under the Skin
Year: 2013
Runtime: 108 minutes
Votes: 96022
Rating: 6.3/10
Language: English
Country: UK, USA, Switzerland
All Genres: Drama, Horror, Sci-Fi, Thriller
Plot Outline: A mysterious young woman seduces lonely men in the evening hours in Scotland. However, events lead her to begin a process of self-discovery.
Director: Jonathan Glazer
Writing By: Walter Campbell,Jonathan Glazer,Michel Faber,Milo Addica,
Produced By: Reno Antoniades,Gillian Berrie,Claudia Bluemhuber,Walter Campbell,Florian Dargel,Ian Hutchinson,Alexander O'Neal,Tessa Ross,Nick Wechsler,James Wilson,
Music: Mica Levi
Plot:
An alien entity inhabits the earthly form of a young woman who combs the roads and streets of Scotland in search of the human prey she came to plunder. She seduces her isolated and forsaken male victims into an otherworldly dimension where they are stripped and consumed. However, existence in all its complexity begin to change the alien visitor. She begins to discover herself as human with tragic and terrifying consequences.
- Written by Claudio Carvalho, Rio de Janeiro, Brazil
A mysterious young woman seduces lonely men in the evening hours in Scotland. However, events lead her to begin a process of self-discovery.
- Written by JJ
Cast:
Scarlett Johansson as The Female
Jeremy McWilliams as The Bad Man
Lynsey Taylor Mackay as The Dead Woman
Dougie McConnell as Pick-Up Man
Kevin McAlinden as First Victim
D. Meade as Leering Man
Andrew Gorman as Second Victim
Joe Szula as Man at Club
Krystof Hádek as The Swimmer
Roy Armstrong as Father at Beach
Trailers:
International Trailer
Teaser Trailer
First Look


Details
Name:Under the Skin 2013 720p Esub BluRay Dual Audio English Hindi GOPISAHI
Description:
Under the Skin (2013) BluRay 720p Dual Audio [English - Hindi] Esub

bb30841b34fe8c24a9fced8cd13137b8.jpg

NOTE SELF DUBBED By Badur

Thanks to Vikass17 for adding his voice to one of the characters. Great work indeed by Him.

Video
Format                         : AVC
Duration                       : 1 h 48 min
Bit rate                       : 948 kb/s
Width                          : 1 280 pixels
Height                         : 688 pixels
Display aspect ratio           : 1.85:1
Frame rate mode                : Constant
Frame rate                     : 23.976 (24000/1001) FPS
Stream size                    : 734 MiB (83%)
Writing library                : x264 core 142 r2409 d6b4e63

Audio #1
Codec ID                       : A_AC3
Duration                       : 1 h 48 min
Bit rate mode                  : Constant
Bit rate                       : 96.0 kb/s
Channel(s)                     : 6 channels
Channel positions              : Front: L C R, Side: L R, LFE
Sampling rate                  : 44.1 kHz
Stream size                    : 74.3 MiB (8%)
Language                       : English

Audio #2
Format                         : AC-3
Duration                       : 1 h 48 min
Bit rate mode                  : Constant
Bit rate                       : 96.0 kb/s
Channel(s)                     : 6 channels
Channel positions              : Front: L C R, Side: L R, LFE
Sampling rate                  : 44.1 kHz
Stream size                    : 74.4 MiB (8%)
Language                       : Hindi

Text
ID                             : 2
Duration                       : 1 h 26 min
Stream size                    : 9.11 KiB (0%)
Language                       : English


Category:Movies > Hollywood Dub
Lang:Hindi
Total Size:884.21 MB



|| Download This Movie Via Single Resumable Links Size: 884 MB ||

Direct-1 Google Drive | Direct-2 | Direct-3 |

Watch Online Click Here

No comments:

Post a Comment