Crazy World Only 4 You

Sorry For The Inconvenience. If You are facing link dead or no google drive file access then inform us via comment

Latest Updates

Friday, 8 June 2018

Azhar (2016) Hindi 1080p Bluray x264 AAC 5.1 ESub -[DDR ExclusivE]


Poster
b8b900eef3d57d6e3e8fa970302f1160.jpg


iMDB
Imdb Picture Title: Azhar
Year: 2016
Runtime: 130 minutes
Votes: 4350
Rating: 5.9/10
Language: Hindi, Urdu
Country: India
All Genres: Biography, Drama, Sport
Plot Outline: Biographical sports drama based on the life of former Indian international cricketer, Mohammad Azharuddin.
Tagline: Love him. Hate him. Judge him.
Director: Anthony D'Souza
Writing By: Rajat Arora,Aditi Mediratta,
Produced By: Tanveer Bookwala,Ashwani Chopra,Anjali D'Cunha,Aman Gill,Bill Hayes,Sameer Qasim Isa,Kasia Kaczmarek,Ekta Kapoor,Shobha Kapoor,Firuzi Khan,Pranjal Khandhdiya,Farid Malick,Sameer Nair,Chirag Nihalani,Sakett Saawhney,Karishma Naina Sharma,Geetika Sood,Nitin Upadhyaya,
Music: Sandeep Shirodkar
Cast:
Emraan Hashmi as Azhar
Nargis Fakhri as Sangeeta
Prachi Desai as Naureen
Lara Dutta as Meera Verma
Kunaal Roy Kapur as Reddy
Gautam Gulati as Ravi
Anikie Maguire as Racecourse Spectator
Kulbhushan Kharbanda as Nanujaan
Rajesh Sharma as M.K Sharma
Shernaz Patel as Azhar's Mom


Details
Name:Azhar 2016 1080p Bluray 10bit x265 7.1 AAC HEVC Natty
Description:
** AZHAR**

** 2016 **
** Tiny 1080p / Blu-Ray / x264 / AAC 5.1 **

** English Subtitle(s) **
b8b900eef3d57d6e3e8fa970302f1160.jpg
 [ Info ]
Source : DDR Blu-ray BD50
Format                                   : Matroska
File size                                : 1.18 GiB
Duration                                 : 2h 10mn
Overall bit rate                         : 1 295 Kbps
Encoded date                             : UTC 2016-07-26 23:02:19

Video
Format                                   : AVC
Format/Info                              : Advanced Video Codec
Format profile                           : High@L4.1
Format settings, CABAC                   : Yes
Format settings, ReFrames                : 12 frames
Codec ID                                 : V_MPEG4/ISO/AVC
Duration                                 : 2h 10mn
Bit rate                                 : 1 096 Kbps
Width                                    : 1 920 pixels
Height                                   : 816 pixels
Display aspect ratio                     : 2.35:1
Frame rate mode                          : Constant
Frame rate                               : 24.000 fps
Color space                              : YUV
Chroma subsampling                       : 4:2:0
Bit depth                                : 8 bits
Scan type                                : Progressive
Bits/(Pixel*Frame)                       : 0.029
Stream size                              : 1 020 MiB (85%)
Language                                 : English
Default                                  : Yes
Forced                                   : No
Color range                              : Limited
Color primaries                          : BT.709

Audio
Format                                   : AAC
Format/Info                              : Advanced Audio Codec
Format profile                           : LC
Codec ID                                 : A_AAC
Duration                                 : 2h 10mn
Bit rate                                 : 192 Kbps
Channel(s)                               : 6 channels
Channel positions                        : Front: L C R, Side: L R, LFE
Sampling rate                            : 48.0 KHz
Frame rate                               : 46.875 fps (1024 spf)
Compression mode                         : Lossy
Delay relative to video                  : 19ms
Stream size                              : 178 MiB (15%)
Language                                 : Hindi
Default                                  : Yes
Forced                                   : No

Text
ID                                       : 3
Format                                   : VobSub
Muxing mode                              : zlib
Codec ID                                 : S_VOBSUB
Codec ID/Info                            : Picture based subtitle format used on DVDs
Duration                                 : 2h 7mn
Bit rate                                 : 5 216 bps
Count of elements                        : 2019
Stream size                              : 4.76 MiB (0%)
Language                                 : English
Default                                  : Yes
Forced                                   : No

Chapters = YES

[ SCREENS ]

Category:Movies > Bollywood
Lang:Hindi
Total Size:1.18 GB




|| Download This Movie Via Single Resumable Links Size: 1.18 GB ||

Direct-1 Google Drive | Direct-2 | Direct-3 |

Watch Online Click Here

No comments:

Post a Comment