STAY WITH US

header ads

Baaghi 2 (2018) Hindi 720p UntoucheD WEB-HD - AVC - AAC ~Katyayan Exclusive~


Poster
755e1cad6f23cf8fdbc50d4a78535ee6.jpg


iMDB
Imdb Picture Title: Baaghi 2
Year: 2018
Language: Hindi
Country: India
All Genres: Action
Plot Outline: Ronny, is hired by ex-lover Neha, to track down her daughter Riya, who has been kidnapped.
Director: Ahmed Khan
Writing By: Hussain Dalal,Abbas Hirapurwala,Jojo Khan,Niraj Kumar Mishra,Sajid Nadiadwala,
Produced By: Bharat Bohra,Dipti Jindal,Rakesh Madhotra,Sajid Nadiadwala,Vikram Raazdan,Vijay Singh,
Music: Mithoon Julius Packiam
Cast:
Disha Patani as Neha
Tiger Shroff as Ronny
Randeep Hooda as
Manoj Bajpayee as
Lakshmi Manchu as
Prateik as
Shifuji Shaurya Bharadwaj as
Paras Arora as
Darshan Kumar as
Indraneel Bhattacharya as
Trailers:
Baaghi 2 Trailer


Details
Name:Baaghi 2 (2018) Hindi 720p UntoucheD WEB-HD - AVC - AAC ~Katyayan Exclusive~
Description:
Baaghi 2 (2018) Hindi 720p UntoucheD WEB-HD - AVC - AAC ~Katyayan Exclusive~

755e1cad6f23cf8fdbc50d4a78535ee6.jpg

Format                                   : MPEG-4
Format profile                           : Base Media
Codec ID                                 : isom (isom/iso2/avc1/mp41)
File size                                : 1.94 GiB
Duration                                 : 2 h 14 min
Overall bit rate mode                    : Constant
Overall bit rate                         : 2 066 kb/s
Writing application                      : Lavf57.75.100

Video
ID                                       : 1
Format                                   : AVC
Format/Info                              : Advanced Video Codec
Format profile                           : Main@L3.1
Format settings                          : CABAC / 1 Ref Frames
Format settings, CABAC                   : Yes
Format settings, RefFrames               : 1 frame
Format settings, GOP                     : M=1, N=25
Codec ID                                 : avc1
Codec ID/Info                            : Advanced Video Coding
Duration                                 : 2 h 14 min
Bit rate mode                            : Constant
Bit rate                                 : 2 000 kb/s
Width                                    : 1 280 pixels
Height                                   : 720 pixels
Display aspect ratio                     : 16:9
Frame rate mode                          : Constant
Frame rate                               : 25.000 FPS
Color space                              : YUV
Chroma subsampling                       : 4:2:0
Bit depth                                : 8 bits
Scan type                                : Progressive
Bits/(Pixel*Frame)                       : 0.087
Stream size                              : 1.88 GiB (97%)

Audio
ID                                       : 2
Format                                   : AAC
Format/Info                              : Advanced Audio Codec
Format profile                           : LC
Codec ID                                 : mp4a-40-2
Duration                                 : 2 h 14 min
Bit rate mode                            : Constant
Bit rate                                 : 61.4 kb/s
Channel(s)                               : 2 channels
Channel positions                        : Front: L R
Sampling rate                            : 48.0 kHz
Frame rate                               : 46.875 FPS (1024 SPF)
Compression mode                         : Lossy
Stream size                              : 59.1 MiB (3%)
Default                                  : Yes
Alternate group                          : 1
T9uGn.th.png T9oxU.th.png T98Eq.th.png T9hPQ.th.png T9TfW.th.png T9djh.th.png T90Hr.th.png T9Mmo.th.png T9GOj.th.png T9YRH.th.png
Category:Movies > Bollywood
Lang:Hindi
Total Size:1.94 GB



|| Download This Movie Via Single Resumable Links Size: 1.94 GB ||

Direct-1 Google Drive | Direct-2 | Direct-3 |

Watch Online Click Here

Post a Comment

0 Comments