STAY WITH US

header ads

Balto (1995) BluRay 720p x264 [Dual Audio] [Hindi DD 5.1 - Eng] AAC Esub -=!Katyayan!=-


Poster


iMDB
Imdb Picture Title: Balto
Year: 1995
Runtime: 78 minutes
Votes: 34423
Rating: 7.1/10
Language: English
Country: USA
All Genres: Animation, Adventure, Drama, Family, History
Plot Outline: A half-wolf, half-husky named Balto gets a chance to become a hero when an outbreak of diphtheria threatens the children of Nome, Alaska in the winter of 1925. He leads a dog team on a 600-mile trip across the Alaskan wilderness to get medical supplies. The film is based on a true story which inspired the Iditarod dog sled race. Written by Alan Katz
Tagline: Part Dog. Part Wolf. All Hero.
Director: Simon Wells
Writing By: Cliff Ruby,Elana Lesser,David Steven Cohen,Roger S.H. Schulman,
Produced By: Rich Arons,Kathleen Kennedy,Bonne Radford,Steven Spielberg,Steve Hickner,Douglas Wood,
Music: James Horner
Cast:
Kevin Bacon as Balto
Bob Hoskins as Boris
Bridget Fonda as Jenna
Jim Cummings as Steele
Phil Collins as Muk and Luk
Jack Angel as Nikki
Danny Mann as Kaltag
Robbie Rist as Star
Juliette Brewer as Rosy
Sandra Dickinson as Sylvie / Dixie / Rosy's Mother
Trailers:
Balto



Details
Name:Balto (1995) BluRay 720p x264 [Dual Audio] [Hindi DD 5.1 - Eng] AAC Esub -=!Katyayan!=-
Description:

Balto (1995) BluRay 720p x264 [Dual Audio] [Hindi DD 5.1 - Eng] AAC Esub -=!Katyayan!=-

 

-=====================Source Credit=====================-

:::::::::::::::::::> Video ---- yify
:::::::::::::::::::> Audio ---- Hammer

Format                                   : Matroska
Format version                           : Version 4 / Version 2
File size                                : 689 MiB
Duration                                 : 1 h 17 min
Overall bit rate                         : 1 241 kb/s
Movie name                               : Balto (1995) BluRay 720p x264 [Dual Audio] [Hindi DD 5.1 - Eng] AAC Esub -=!Katyayan!=-
Encoded date                             : UTC 2018-05-29 04:23:27
Writing application                      : mkvmerge v19.0.0 ('Brave Captain') 32-bit
Writing library                          : libebml v1.3.5 + libmatroska v1.4.8
Attachments                              : Balto (1995) Poster

Video
ID                                       : 1
Format                                   : AVC
Format/Info                              : Advanced Video Codec
Format profile                           : High@L4
Format settings                          : CABAC / 12 Ref Frames
Format settings, CABAC                   : Yes
Format settings, RefFrames               : 12 frames
Codec ID                                 : V_MPEG4/ISO/AVC
Duration                                 : 1 h 17 min
Bit rate                                 : 983 kb/s
Width                                    : 1 280 pixels
Height                                   : 544 pixels
Display aspect ratio                     : 2.35:1
Frame rate mode                          : Constant
Frame rate                               : 23.976 (24000/1001) FPS
Color space                              : YUV
Chroma subsampling                       : 4:2:0
Bit depth                                : 8 bits
Scan type                                : Progressive
Bits/(Pixel*Frame)                       : 0.059
Stream size                              : 545 MiB (79%)
Title                                    : Balto (1995) BluRay 720p x264 [Dual Audio] [Hindi DD 5.1 - Eng] AAC Esub -=!Katyayan!=-
Writing library                          : x264 core 129 r2245 bc13772
Default                                  : Yes
Forced                                   : No

Audio #1
ID                                       : 2
Format                                   : AAC
Format/Info                              : Advanced Audio Codec
Format profile                           : LC
Codec ID                                 : A_AAC-2
Duration                                 : 1 h 17 min
Bit rate                                 : 192 kb/s
Channel(s)                               : 6 channels
Channel positions                        : Front: L C R, Side: L R, LFE
Sampling rate                            : 48.0 kHz
Frame rate                               : 46.875 FPS (1024 SPF)
Compression mode                         : Lossy
Delay relative to video                  : 10 ms
Stream size                              : 107 MiB (15%)
Title                                    : -=!Katyayan!=-
Language                                 : Hindi
Default                                  : Yes
Forced                                   : Yes

Audio #2
ID                                       : 3
Format                                   : AAC
Format/Info                              : Advanced Audio Codec
Format profile                           : HE-AAC / LC
Format settings                          : Explicit
Codec ID                                 : A_AAC-2
Duration                                 : 1 h 17 min
Bit rate                                 : 63.9 kb/s
Channel(s)                               : 2 channels
Channel positions                        : Front: L R
Sampling rate                            : 48.0 kHz / 24.0 kHz
Frame rate                               : 23.438 FPS (1024 SPF)
Compression mode                         : Lossy
Delay relative to video                  : 31 ms
Stream size                              : 35.5 MiB (5%)
Title                                    : -=!Katyayan!=-
Language                                 : English
Default                                  : No
Forced                                   : No

Text
ID                                       : 4
Format                                   : UTF-8
Codec ID                                 : S_TEXT/UTF8
Codec ID/Info                            : UTF-8 Plain Text
Duration                                 : 1 h 17 min
Bit rate                                 : 48 b/s
Count of elements                        : 779
Stream size                              : 27.3 KiB (0%)
Title                                    : -=!Katyayan!=-
Language                                 : English
Default                                  : Yes
Forced                                   : Yes


 
Category:Movies > Hollywood Dub
Lang:Hindi
Total Size:689.04 MB



|| Download This Movie Via Single Resumable Links Size: 689 MB ||

Direct-1 Google Drive | Direct-2 | Direct-3 |

Watch Online Click Here

Post a Comment

0 Comments