Crazy World Only 4 You

Sorry For The Inconvenience. If You are facing link dead or no google drive file access then inform us via comment

Latest Updates

Friday, 1 June 2018

Bambi (1942) BluRay 720p x264 [Dual Audio] [Hindi DD 5.1 - Eng] AAC Esub -=!Katyayan!=-


Poster


iMDB
Imdb Picture Title: Bambi
Year: 1942
Runtime: 70 minutes
Votes: 109240
Rating: 7.3/10
Language: English
Country: USA
All Genres: Animation, Drama, Family
Plot Outline: The story of a young deer growing up in the forest.
Tagline: Love Comes To The Forest Folk . . . and to you, in one of the world's greatest love stories !
Director: James Algar
Samuel Armstrong
David Hand
Graham Heid
Bill Roberts
Paul Satterfield
Norman Wright
Writing By: Felix Salten,Perce Pearce,Larry Morey,Vernon Stallings,Mel Shaw,Carl Fallberg,Chuck Couch,Ralph Wright,
Produced By: Walt Disney,
Music: Frank Churchill Edward H. Plumb
Cast:
Hardie Albright as Adolescent Bambi
Stan Alexander as Young Flower
Bobette Audrey as
Peter Behn as Young Thumper
Thelma Boardman as Girl Bunny / Quail Mother / Female Pheasant
Janet Chapman as
Jeanne Christy as
Dolyn Bramston Cook as
Marion Darlington as Birds
Tim Davis as Adult Thumper / Adolescent Flower
Trailers:
Bambi: Diamond Edition
Bambi: Diamond Edition


Details
Name:Bambi (1942) BluRay 720p x264 [Dual Audio] [Hindi DD 5.1 - Eng] AAC Esub -=!Katyayan!=-
Description:
Bambi (1942) BluRay 720p x264 [Dual Audio] [Hindi DD 5.1 - Eng] AAC Esub -=!Katyayan!=-

 


-=====================Credit=====================-

:::::::::::::::::::> Video ---- yify

:::::::::::::::::::> Audio ---- The Punisher




Format                                   : Matroska
Format version                           : Version 4 / Version 2
File size                                : 630 MiB
Duration                                 : 1 h 10 min
Overall bit rate                         : 1 254 kb/s
Movie name                               : Bambi (1942) BluRay 720p x264 [Dual Audio] [Hindi DD 5.1 - Eng] AAC Esub -=!Katyayan!=-

Video
ID                                       : 1
Format                                   : AVC
Format/Info                              : Advanced Video Codec
Format profile                           : High@L4
Format settings                          : CABAC / 12 Ref Frames
Format settings, CABAC                   : Yes
Format settings, RefFrames               : 12 frames
Codec ID                                 : V_MPEG4/ISO/AVC
Duration                                 : 1 h 9 min
Bit rate                                 : 1 003 kb/s
Width                                    : 918 pixels
Height                                   : 720 pixels
Display aspect ratio                     : 1.275
Frame rate mode                          : Constant
Frame rate                               : 23.976 (24000/1001) FPS
Color space                              : YUV
Chroma subsampling                       : 4:2:0
Bit depth                                : 8 bits
Scan type                                : Progressive
Bits/(Pixel*Frame)                       : 0.063
Stream size                              : 501 MiB (79%)
Title                                    : Bambi (1942) BluRay 720p x264 [Dual Audio] [Hindi DD 5.1 - Eng] AAC Esub -=!Katyayan!=-
Writing library                          : x264 core 129 r2245 bc13772
Language                                 : English
Default                                  : Yes
Forced                                   : No

Audio #1
ID                                       : 2
Format                                   : AAC
Format/Info                              : Advanced Audio Codec
Format profile                           : LC
Codec ID                                 : A_AAC-2
Duration                                 : 1 h 10 min
Bit rate                                 : 192 kb/s
Channel(s)                               : 6 channels
Channel positions                        : Front: L C R, Side: L R, LFE
Sampling rate                            : 48.0 kHz
Frame rate                               : 46.875 FPS (1024 SPF)
Compression mode                         : Lossy
Delay relative to video                  : 1 s 0 ms
Stream size                              : 96.1 MiB (15%)
Title                                    : -=!Katyayan!=-
Language                                 : Hindi
Default                                  : Yes
Forced                                   : Yes

Audio #2
ID                                       : 3
Format                                   : AAC
Format/Info                              : Advanced Audio Codec
Format profile                           : HE-AAC / LC
Format settings                          : Explicit
Codec ID                                 : A_AAC-2
Duration                                 : 1 h 9 min
Bit rate                                 : 63.8 kb/s
Channel(s)                               : 2 channels
Channel positions                        : Front: L R
Sampling rate                            : 48.0 kHz / 24.0 kHz
Frame rate                               : 23.438 FPS (1024 SPF)
Compression mode                         : Lossy
Delay relative to video                  : 31 ms
Stream size                              : 31.9 MiB (5%)
Title                                    : -=!Katyayan!=-
Language                                 : English
Default                                  : No
Forced                                   : No

Text
ID                                       : 4
Format                                   : UTF-8
Codec ID                                 : S_TEXT/UTF8
Codec ID/Info                            : UTF-8 Plain Text
Duration                                 : 1 h 9 min
Bit rate                                 : 24 b/s
Count of elements                        : 414
Stream size                              : 12.5 KiB (0%)
Title                                    : -=!Katyayan!=-
Language                                 : English
Default                                  : Yes
Forced                                   : Yes


 

Category:Movies > Hollywood Dub
Lang:Hindi
Total Size:630.62 MB



|| Download This Movie Via Single Resumable Links Size: 630 MB ||

Direct-1 Google Drive | Direct-2 | Direct-3 |

Watch Online Click Here

No comments:

Post a Comment