Crazy World Only 4 You

Sorry For The Inconvenience. If You are facing link dead or no google drive file access then inform us via comment

Latest Updates

Wednesday, 20 June 2018

Black Dawn (2005) WEB-DL [Dual Audio] [Hindi - Eng] x264 AAC Esub -=!Katyayan!=-


Poster


iMDB
Imdb Picture Title: Black Dawn
Year: 2005
Runtime: 96 minutes
Votes: 3254
Rating: 3.9/10
Language: English
Country: USA
All Genres: Action
Plot Outline: Jonathan Cold returns, this time he goes undercover to stop a group of terrorists before they bomb Los Angeles.
Tagline: It's always darkest before dawn.
Director: Alexander Gruszynski
Writing By: Martin Wheeler,
Produced By: Kamal Aboukhater,Binh Dang,Phillip B. Goldfine,Shahrook Oomer,David Ralph,Steven Seagal,William B. Steakley,Andrew Stevens,
Music: David Wurst Eric Wurst
Cast:
Steven Seagal as Jonathan Cold
Tamara Davies as Agent Amanda Stuart
John Pyper-Ferguson as James Donovan
Julian Stone as Michael Donovan
Nicholas Davidoff as Nicholi
Roman Varshavsky as Fedor
Noa Hegesh as Julia
Warren Derosa as Sergey
Angela Gots as Stazi
Don Franklin as Max Pierson
Trailers:
Black Dawn
Black Dawn



Details
Name:Black Dawn (2005) WEB-DL [Dual Audio] [Hindi - Eng] x264 AAC Esub -=!Katyayan!=-
Description:

Black Dawn (2005) WEB-DL [Dual Audio] [Hindi - Eng] x264 AAC Esub -=!Katyayan!=-
 
:::::::::::::::::::> Audio ---- Hammer
Format                                   : Matroska
Format version                           : Version 4 / Version 2
File size                                : 794 MiB
Duration                                 : 1 h 35 min
Overall bit rate                         : 1 157 kb/s
Movie name                               : Black Dawn (2005) WEB-DL [Dual Audio] [Hindi - Eng] x264 AAC Esub -=!Katyayan!=-
Cover                                    : Yes
Attachments                              : Black Dawn (2005)  Cover

Video
ID                                       : 1
Format                                   : AVC
Format/Info                              : Advanced Video Codec
Format profile                           : High@L5.1
Format settings                          : CABAC / 4 Ref Frames
Format settings, CABAC                   : Yes
Format settings, RefFrames               : 4 frames
Codec ID                                 : V_MPEG4/ISO/AVC
Duration                                 : 1 h 35 min
Bit rate                                 : 901 kb/s
Width                                    : 720 pixels
Height                                   : 400 pixels
Display aspect ratio                     : 16:9
Frame rate mode                          : Constant
Frame rate                               : 23.976 (24000/1001) FPS
Color space                              : YUV
Chroma subsampling                       : 4:2:0
Bit depth                                : 8 bits
Scan type                                : Progressive
Bits/(Pixel*Frame)                       : 0.130
Stream size                              : 616 MiB (78%)
Title                                    : Black Dawn (2005) WEB-DL [Dual Audio] [Hindi - Eng] x264 AAC Esub -=!Katyayan!=-
Writing library                          : x264 core 152 r2851kMod ba24899
Language                                 : English
Default                                  : Yes
Forced                                   : No

Audio #1
ID                                       : 2
Format                                   : AAC
Format/Info                              : Advanced Audio Codec
Format profile                           : LC
Codec ID                                 : A_AAC-2
Duration                                 : 1 h 35 min
Bit rate                                 : 128 kb/s
Channel(s)                               : 2 channels
Channel positions                        : Front: L R
Sampling rate                            : 48.0 kHz
Frame rate                               : 46.875 FPS (1024 SPF)
Compression mode                         : Lossy
Delay relative to video                  : 9 ms
Stream size                              : 87.9 MiB (11%)
Title                                    : -=!Katyayan!=-
Language                                 : Hindi
Default                                  : Yes
Forced                                   : Yes

Audio #2
ID                                       : 3
Format                                   : AAC
Format/Info                              : Advanced Audio Codec
Format profile                           : LC
Codec ID                                 : A_AAC-2
Duration                                 : 1 h 35 min
Bit rate                                 : 128 kb/s
Channel(s)                               : 2 channels
Channel positions                        : Front: L R
Sampling rate                            : 48.0 kHz
Frame rate                               : 46.875 FPS (1024 SPF)
Compression mode                         : Lossy
Stream size                              : 87.8 MiB (11%)
Title                                    : -=!Katyayan!=-
Language                                 : English
Default                                  : No
Forced                                   : No

Text
ID                                       : 4
Format                                   : UTF-8
Codec ID                                 : S_TEXT/UTF8
Codec ID/Info                            : UTF-8 Plain Text
Duration                                 : 1 h 32 min
Bit rate                                 : 45 b/s
Count of elements                        : 1190
Stream size                              : 31.1 KiB (0%)
Title                                    : -=!Katyayan!=-
Language                                 : English
Default                                  : Yes
Forced                                   : Yes

 
Category:Movies > Hollywood Dub
Lang:Hindi
Total Size:794.60 MB



|| Download This Movie Via Single Resumable Links Size: 794 MB ||

Direct-1 Google Drive | Direct-2 | Direct-3 |

Watch Online Click Here

No comments:

Post a Comment