Crazy World Only 4 You

Sorry For The Inconvenience. If You are facing link dead or no google drive file access then inform us via comment

Latest Updates

Sunday, 10 June 2018

Black Panther 2018 BluRay 720p HEVC [Dual Audio] [Hindi DD 5.1 - Eng] AAC Esub -=!Katyayan!=-


Poster


iMDB
Imdb Picture Title: Black Panther
Year: 2018
Runtime: 134 minutes
Votes: 7393
Rating: 6.7/10
Language: English
Country: USA
All Genres: Action, Adventure, Sci-Fi
Plot Outline: T'Challa, after the death of his father, the King of Wakanda, returns home to the isolated, technologically advanced African nation to succeed to the throne and take his rightful place as king.
Tagline: Hero. Legend. King.
Director: Ryan Coogler
Writing By: Ryan Coogler,Joe Robert Cole,Stan Lee,Jack Kirby,
Produced By: Victoria Alonso,Jeffrey Chernov,Louis D'Esposito,Kevin Feige,David J. Grant,Stan Lee,Nate Moore,
Music: Ludwig Göransson
Cast:
Chadwick Boseman as T'Challa / Black Panther
Michael B. Jordan as Erik Killmonger
Lupita Nyong'o as Nakia
Danai Gurira as Okoye
Martin Freeman as Everett K. Ross
Daniel Kaluuya as W'Kabi
Letitia Wright as Shuri
Winston Duke as M'Baku
Sterling K. Brown as N'Jobu
Angela Bassett as Ramonda
Trailers:
"Entourage" TV Spot
Rise TV Spot
Black Panther Trailer
"King" TV Spot
Official Trailer
Teaser Trailer


Details
Name:Black Panther (2018) BluRay 720p x265 [Dual Audio] [Hindi DD 5.1 - Eng] AAC Esub -=!Katyayan!=-
Description:

Black Panther 2018 BluRay 720p x265 [Dual Audio] [Hindi DD 5.1 - Eng] AAC Esub -=!Katyayan!=-

 

-=====================Source Credit=====================-

:::::::::::::::::::> Video ---- MkvCage
:::::::::::::::::::> Audio ---- Rohit Sawant

Format                                   : Matroska
Format version                           : Version 4 / Version 2
File size                                : 1 011 MiB
Duration                                 : 2 h 14 min
Overall bit rate                         : 1 050 kb/s
Movie name                               : Black Panther 2018 BluRay 720p x265 [Dual Audio] [Hindi DD 5.1 - Eng] AAC Esub -=!Katyayan!=-

Video
ID                                       : 1
Format                                   : HEVC
Format/Info                              : High Efficiency Video Coding
Format profile                           : Main@L3.1@Main
Codec ID                                 : V_MPEGH/ISO/HEVC
Duration                                 : 2 h 14 min
Bit rate                                 : 823 kb/s
Width                                    : 1 280 pixels
Height                                   : 536 pixels
Display aspect ratio                     : 2.40:1
Frame rate mode                          : Constant
Frame rate                               : 23.976 (24000/1001) FPS
Color space                              : YUV
Chroma subsampling                       : 4:2:0
Bit depth                                : 8 bits
Bits/(Pixel*Frame)                       : 0.050
Stream size                              : 792 MiB (78%)
Title                                    : Black Panther 2018 BluRay 720p x265 [Dual Audio] [Hindi DD 5.1 - Eng] AAC Esub -=!Katyayan!=-
Writing library                          : x265 2.1:[Windows][GCC 5.4.0][64 bit] 8bit
Language                                 : English
Default                                  : Yes
Forced                                   : No
Color range                              : Limited
Color primaries                          : BT.709
Transfer characteristics                 : BT.709
Matrix coefficients                      : BT.709

Audio #1
ID                                       : 2
Format                                   : AAC
Format/Info                              : Advanced Audio Codec
Format profile                           : LC
Codec ID                                 : A_AAC-2
Duration                                 : 2 h 14 min
Bit rate                                 : 192 kb/s
Channel(s)                               : 6 channels
Channel positions                        : Front: L C R, Side: L R, LFE
Sampling rate                            : 48.0 kHz
Frame rate                               : 46.875 FPS (1024 SPF)
Compression mode                         : Lossy
Delay relative to video                  : 1 s 0 ms
Stream size                              : 185 MiB (18%)
Title                                    : -=!Katyayan!=-
Language                                 : Hindi
Default                                  : Yes
Forced                                   : Yes

Audio #2
ID                                       : 3
Format                                   : AAC
Format/Info                              : Advanced Audio Codec
Format profile                           : LC
Codec ID                                 : A_AAC-2
Duration                                 : 2 h 14 min
Bit rate                                 : 32.2 kb/s
Channel(s)                               : 2 channels
Channel positions                        : Front: L R
Sampling rate                            : 48.0 kHz
Frame rate                               : 46.875 FPS (1024 SPF)
Compression mode                         : Lossy
Stream size                              : 30.9 MiB (3%)
Title                                    : -=!Katyayan!=-
Language                                 : English
Default                                  : No
Forced                                   : No

Text
ID                                       : 4
Format                                   : UTF-8
Codec ID                                 : S_TEXT/UTF8
Codec ID/Info                            : UTF-8 Plain Text
Duration                                 : 2 h 14 min
Bit rate                                 : 47 b/s
Count of elements                        : 1587
Stream size                              : 46.6 KiB (0%)
Title                                    : -=!Katyayan!=-
Language                                 : English
Default                                  : Yes
Forced                                   : Yes


 
Category:Movies > Hollywood Dub
Lang:Hindi
Total Size:1,011.00 MB



|| Download This Movie Via Single Resumable Links Size: 1011 MB ||

Direct-1 Google Drive | Direct-2 | Direct-3 |

Watch Online Click Here

No comments:

Post a Comment