Crazy World Only 4 You

Sorry For The Inconvenience. If You are facing link dead or no google drive file access then inform us via comment

Latest Updates

Monday, 11 June 2018

Double Team (1997) BluRay 720p x264 [Dual Audio] [Hindi DD 5.1 - Eng] AAC Esub -=!Katyayan!=-


Poster


iMDB
Imdb Picture Title: Double Team
Year: 1997
Runtime: 93 minutes
Votes: 27869
Rating: 4.7/10
Language: English, Italian
Country: USA
All Genres: Action, Comedy, Sci-Fi, Thriller
Plot Outline: Counter-terrorist Jack Quinn misses his target, Stavros, on the eve of his final mission. From there, he is sent to "The Colony", a rebirth for presumed-dead assassins. He breaks free from there, and seeks the aid of Yaz, a weapons dealer, for his final battle with Stavros. Written by Orlandus Brown Jr.
Tagline: You're either on their side...or in their way.
Director: Hark Tsui
Writing By: Don Jakoby,Don Jakoby,Paul Mones,
Produced By: Moshe Diamant,Don Jakoby,Richard G. Murphy,Rick Nathanson,David Rodgers,Nansun Shi,Peter Nelson,
Music: Gary Chang
Cast:
Jean-Claude Van Damme as Jack Quinn
Dennis Rodman as Yaz
Mickey Rourke as Stavros
Paul Freeman as Goldsmythe
Natacha Lindinger as Kathryn Quinn
Valéria Cavalli as Dr. Maria Trifioli
Jay Benedict as Brandon
Joëlle Devaux-Vullion as Stavros' Girlfriend
Bruno Bilotta as Kofi
Mario Opinato as James
Trailers:
Double Team


Details
Name:Double Team (1997) BluRay 720p x264 [Dual Audio] [Hindi DD 5.1 - Eng] AAC Esub -=!Katyayan!=-
Description:

Double Team (1997) BluRay 720p x264 [Dual Audio] [Hindi DD 5.1 - Eng] AAC Esub -=!Katyayan!=-

 
-=====================Source Credit=====================-

:::::::::::::::::::> Video ---- YIFY
:::::::::::::::::::> Audio ---- Hamme

Format                                   : Matroska
Format version                           : Version 4 / Version 2
File size                                : 777 MiB
Duration                                 : 1 h 33 min
Overall bit rate                         : 1 167 kb/s
Movie name                               : Double Team (1997) BluRay 720p x264 [Dual Audio] [Hindi DD 5.1 - Eng] AAC Esub -=!Katyayan!=-

Video
ID                                       : 1
Format                                   : AVC
Format/Info                              : Advanced Video Codec
Format profile                           : High@L4.1
Format settings                          : CABAC / 4 Ref Frames
Format settings, CABAC                   : Yes
Format settings, RefFrames               : 4 frames
Codec ID                                 : V_MPEG4/ISO/AVC
Duration                                 : 1 h 33 min
Bit rate                                 : 900 kb/s
Width                                    : 1 280 pixels
Height                                   : 544 pixels
Display aspect ratio                     : 2.35:1
Frame rate mode                          : Constant
Frame rate                               : 23.976 (24000/1001) FPS
Color space                              : YUV
Chroma subsampling                       : 4:2:0
Bit depth                                : 8 bits
Scan type                                : Progressive
Bits/(Pixel*Frame)                       : 0.054
Stream size                              : 599 MiB (77%)
Title                                    : Double Team (1997) BluRay 720p x264 [Dual Audio] [Hindi DD 5.1 - Eng] AAC Esub -=!Katyayan!=-
Writing library                          : x264 core 148
Language                                 : English
Default                                  : Yes
Forced                                   : No

Audio #1
ID                                       : 2
Format                                   : AAC
Format/Info                              : Advanced Audio Codec
Format profile                           : LC
Codec ID                                 : A_AAC-2
Duration                                 : 1 h 32 min
Bit rate                                 : 192 kb/s
Channel(s)                               : 6 channels
Channel positions                        : Front: L C R, Side: L R, LFE
Sampling rate                            : 48.0 kHz
Frame rate                               : 46.875 FPS (1024 SPF)
Compression mode                         : Lossy
Delay relative to video                  : 2 s 200 ms
Stream size                              : 128 MiB (16%)
Title                                    : -=!Katyayan!=-
Language                                 : Hindi
Default                                  : Yes
Forced                                   : Yes

Audio #2
ID                                       : 3
Format                                   : AAC
Format/Info                              : Advanced Audio Codec
Format profile                           : HE-AAC / LC
Format settings                          : Explicit
Codec ID                                 : A_AAC-2
Duration                                 : 1 h 33 min
Bit rate                                 : 64.0 kb/s
Channel(s)                               : 2 channels
Channel positions                        : Front: L R
Sampling rate                            : 48.0 kHz / 24.0 kHz
Frame rate                               : 23.438 FPS (1024 SPF)
Compression mode                         : Lossy
Delay relative to video                  : 31 ms
Stream size                              : 42.6 MiB (5%)
Title                                    : -=!Katyayan!=-
Language                                 : English
Default                                  : No
Forced                                   : No

Text
ID                                       : 4
Format                                   : PGS
Muxing mode                              : zlib
Codec ID                                 : S_HDMV/PGS
Codec ID/Info                            : Picture based subtitle format used on BDs/HD-DVDs
Duration                                 : 1 h 28 min
Bit rate                                 : 16.6 kb/s
Count of elements                        : 790
Stream size                              : 10.5 MiB (1%)
Title                                    : -=!Katyayan!=-
Language                                 : English
Default                                  : Yes
Forced                                   : Yes

 
Category:Movies > Hollywood Dub
Lang:Hindi
Total Size:777.06 MB





|| Download This Movie Via Single Resumable Links Size: 777 MB ||

Direct-1 Google Drive | Direct-2 | Direct-3 |

Watch Online Click Here

No comments:

Post a Comment