Game of Thrones S01E03 720p x264 BluRay Dual Audio [English + Hindi] Esub 528MB [Crazzyboy]


Poster
67dd14477357e41d7af626878e17ab79.jpg


iMDB
Imdb Picture Title: "Game of Thrones" Lord Snow
Year: 2011
Runtime: 58 minutes
Votes: 18484
Rating: 8.7/10
Language: English
Country: USA
All Genres: Action, Adventure, Drama, Fantasy, Romance
Plot Outline: After the attempted assassination of young Bran, Catelyn leaves for King's Landing to see her husband, convinced that the Lannisters were behind the attempt. On arrival, she is met by a former beau, Petyr Baelish, who tells her that the knife used in the attack on Bran was his - until he lost it in a wager to Tyrion Lannister a year ago. When presented with the evidence, Ned isn't convinced. He's kept busy as the King's Hand and is shocked at King Robert's spendthrift ways. Cersei tells her son Joffrey that when he is King, he can do anything he wants. Across the Narrow Sea, Daenerys begins to act like a queen and has a confrontation with her brother who makes it clear that he is in charge. She also realizes she is pregnant. At the wall, Ned's illegitimate son Jon Snow undergoes training to become a member of the Night's Watch. Written by garykmcd
Director: Brian Kirk
Writing By: David Benioff,D.B. Weiss,George R.R. Martin,David Benioff,D.B. Weiss,
Produced By: David Benioff,Jonathan Brytus,Guymon Casady,Frank Doelger,Jim Duggan,Vince Gerardis,Mark Huffam,George R.R. Martin,Christopher Newman,Greg Spence,Carolyn Strauss,Guy Tannahill,Ralph Vicinanza,D.B. Weiss,
Music: Ramin Djawadi
Cast:
Sean Bean as Eddard 'Ned' Stark
Mark Addy as Robert Baratheon
Nikolaj Coster-Waldau as Jaime Lannister
Michelle Fairley as Catelyn Stark
Lena Headey as Cersei Lannister
Emilia Clarke as Daenerys Targaryen
Iain Glen as Jorah Mormont
Aidan Gillen as Petyr 'Littlefinger' Baelish
Harry Lloyd as Viserys Targaryen
Kit Harington as Jon Snow



Details
Name:Game of Thrones S01E03 720p x264 BluRay Dual Audio [English + Hindi] Esub 528MB [Crazzyboy]
Description:
 Game of Thrones S01E03 720p x264 BluRay Dual Audio [English + Hindi] Esub 528MB [Crazzyboy] 



caec8e22f89b73a18cf905e6f2dd599c.gif

General

Format                      : Matroska
Format version              : Version 4 / Version 2
File size                   : 528 MiB
Duration                    : 57 min 14 s
Overall bit rate            : 1 290 kb/s
Encoded date                : UTC 2018-06-19 04:35:44
Writing application         : mkvmerge v12.0.0 ('Trust / Lust') 64bit
Writing library             : libebml v1.3.4 + libmatroska v1.4.5

Video
ID                          : 2
Format                      : AVC
Format/Info                 : Advanced Video Codec
Format profile              : High@L4
Format settings             : CABAC / 5 Ref Frames
Format settings, CABAC      : Yes
Format settings, ReFrames   : 5 frames
Codec ID                    : V_MPEG4/ISO/AVC
Duration                    : 57 min 14 s
Bit rate                    : 1 032 kb/s
Width                       : 1 280 pixels
Height                      : 720 pixels
Display aspect ratio        : 16:9
Frame rate mode             : Constant
Frame rate                  : 23.976 (24000/1001) FPS
Color space                 : YUV
Chroma subsampling          : 4:2:0
Bit depth                   : 8 bits
Scan type                   : Progressive
Bits/(Pixel*Frame)          : 0.047
Stream size                 : 423 MiB (80%)
Writing library             : x264 core 133 r2334 a3ac64b
Language                    : English
Default                     : Yes
Forced                      : No

Audio #1
ID                          : 1
Format                      : AC-3
Format/Info                 : Audio Coding 3
Codec ID                    : A_AC3
Duration                    : 57 min 14 s
Bit rate mode               : Constant
Bit rate                    : 192 kb/s
Channel(s)                  : 6 channels
Channel positions           : Front: L C R, Side: L R, LFE
Sampling rate               : 48.0 kHz
Frame rate                  : 31.250 FPS (1536 SPF)
Bit depth                   : 16 bits
Compression mode            : Lossy
Delay relative to video     : 160 ms
Stream size                 : 78.6 MiB (15%)
Language                    : Hindi
Service kind                : Complete Main
Default                     : Yes
Forced                      : No

Audio #2
ID                          : 3
Format                      : AAC
Format/Info                 : Advanced Audio Codec
Format profile              : HE-AAC / LC
Format settings             : Explicit
Codec ID                    : A_AAC-2
Duration                    : 57 min 14 s
Bit rate                    : 64.0 kb/s
Channel(s)                  : 2 channels
Channel positions           : Front: L R
Sampling rate               : 48.0 kHz / 24.0 kHz
Frame rate                  : 23.438 FPS (1024 SPF)
Compression mode            : Lossy
Delay relative to video     : 31 ms
Stream size                 : 26.2 MiB (5%)
Language                    : English
Default                     : No
Forced                      : No

Text
ID                          : 4
Format                      : UTF-8
Codec ID                    : S_TEXT/UTF8
Codec ID/Info               : UTF-8 Plain Text
Duration                    : 56 min 5 s
Bit rate                    : 66 b/s
Count of elements           : 789
Stream size                 : 27.4 KiB (0%)
Language                    : English
Default                     : Yes
Forced                      : No


 


Category:TV > WEB-HD
Lang:Hindi
Total Size:528.25 MB



|| Download This Tv Show Via Single Resumable Links Size: 528 MB ||

Direct-1 Google Drive | Direct-2 | Direct-3 |

Watch Online Click Here

Post a Comment

0 Comments