Game of Thrones S01E04 720p x264 BluRay Dual Audio [English + Hindi] Esub 526MB [Crazzyboy]


Poster
67dd14477357e41d7af626878e17ab79.jpg


iMDB
Imdb Picture Title: "Game of Thrones" Cripples, Bastards, and Broken Things
Year: 2011
Runtime: 56 minutes
Votes: 17724
Rating: 8.8/10
Language: Russian, English
All Genres: Action, Adventure, Drama, Fantasy, Romance
Plot Outline: Ned begins to look into the death of his predecessor and mentor John Arryn. He learns that Arryn was interested in a particular book and also visited a local blacksmith known for making quality arms. There he meets someone quite interesting. At the northern wall, Jon befriends Samwell Tarly an overweight, bumbling young man whose father gave him the choice of joining the Night's Watch or dying in a hunting 'accident'. Sam is the object of scorn from other trainees and their instructor. Jon makes it clear that no harm will come him. Sansa is still not speaking to her father after he was forced to kill her wolf. She is preparing to become Queen someday. Her sister Arya meanwhile is taking sword fighting lessons and sees herself as a knight. Across the Narrow Sea, Daenerys defends herself when her brother Vyseris slaps her making it very clear that she too can exercise some authority. Written by garykmcd
Director: Brian Kirk
Writing By: David Benioff,D.B. Weiss,George R.R. Martin,Bryan Cogman,
Produced By: David Benioff,Jonathan Brytus,Guymon Casady,Frank Doelger,Jim Duggan,Vince Gerardis,Mark Huffam,Christopher Newman,Greg Spence,Guy Tannahill,D.B. Weiss,
Music: Ramin Djawadi
Cast:
Sean Bean as Eddard 'Ned' Stark
Mark Addy as Robert Baratheon
Nikolaj Coster-Waldau as Jaime Lannister
Michelle Fairley as Catelyn Stark
Lena Headey as Cersei Lannister
Emilia Clarke as Daenerys Targaryen
Iain Glen as Jorah Mormont
Aidan Gillen as Petyr 'Littlefinger' Baelish
Harry Lloyd as Viserys Targaryen
Kit Harington as Jon Snow



Details
Name:Game of Thrones S01E04 720p x264 BluRay Dual Audio [English + Hindi] Esub 526MB [Crazzyboy]
Description:
Game of Thrones S01E04 720p x264 BluRay Dual Audio [English + Hindi] Esub 526MB [Crazzyboy]


f146a2c32acc70bbc758095c1132c112.jpg

General
Format version : Version 4 / Version 2
File size : 526 MiB
Duration : 55 min 37 s
Overall bit rate : 1 323 kb/s
Encoded date : UTC 2018-06-17 20:54:27

Video
Format : AVC
Duration : 55 min 37 s
Bit rate : 1 064 kb/s
Width : 1 280 pixels
Height : 720 pixels
Display aspect ratio : 16:9
Frame rate mode : Constant
Frame rate : 23.976 (24000/1001) FPS
Stream size : 424 MiB (80%)
Language : English
Default : Yes
Forced : No

Audio #1
Format : AC-3
Duration : 55 min 35 s
Bit rate mode : Constant
Bit rate : 192 kb/s
Channel(s) : 6 channels
Channel positions : Front: L C R, Side: L R, LFE
Sampling rate : 48.0 kHz
Frame rate : 31.250 FPS (1536 SPF)
Stream size : 76.4 MiB (15%)
Language : Hindi
Service kind : Complete Main

Audio #2
Format : AAC
Format/Info : Advanced Audio Codec
Codec ID : A_AAC-2
Duration : 55 min 37 s
Bit rate : 64.0 kb/s
Channel(s) : 2 channels
Channel positions : Front: L R
Delay relative to video : 31 ms
Stream size : 25.5 MiB (5%)
Language : English

Text
Format : UTF-8
Duration : 54 min 24 s
Bit rate : 73 b/s
Count of elements : 799
Stream size : 29.3 KiB (0%)
Language : English







Category:TV > WEB-HD
Lang:Hindi
Total Size:526.30 MB



|| Download This Tv Show Via Single Resumable Links Size: 526 MB ||

Direct-1 Google Drive | Direct-2 | Direct-3 |

Watch Online Click Here

Post a Comment

0 Comments