Crazy World Only 4 You

Sorry For The Inconvenience. If You are facing link dead or no google drive file access then inform us via comment

Latest Updates

Friday, 1 June 2018

Hitch (2005) BluRay 720p x264 [Dual Audio] [Hindi - Eng] AAC Esub -=!Katyayan!=-


Poster


iMDB
Imdb Picture Title: Hitch
Year: 2005
Runtime: 118 minutes
Votes: 267415
Rating: 6.6/10
Language: English
Country: USA
All Genres: Comedy, Romance
Plot Outline: Alex Hitchens is "The Date Doctor." He helps men to land dates. Sara is a gossip columnist for a New York City tabloid. Both are very guarded around the opposite sex. Despite their natures, Alex and Sara begin a relationship. Complications ensue when Sara's latest scoop happens to be one of Alex's clients. Written by Ken Miller <wkmiller704@yahoo.com>
Tagline: The cure for the common man.
Director: Andy Tennant
Writing By: Kevin Bisch,
Produced By: James Lassiter,Wink Mordaunt,Will Smith,Michael Tadross,Teddy Zee,
Music: George Fenton
Cast:
Will Smith as Hitch
Eva Mendes as Sara
Kevin James as Albert
Amber Valletta as Allegra
Julie Ann Emery as Casey
Adam Arkin as Max
Robinne Lee as Cressida
Nathan Lee Graham as Geoff
Michael Rapaport as Ben
Jeffrey Donovan as Vance
Trailers:
Hitch

Details
Name:Hitch (2005) BluRay 720p x264 [Dual Audio] [Hindi - Eng] AAC Esub -=!Katyayan!=-
Description:
Hitch (2005) BluRay 720p x264 [Dual Audio] [Hindi - Eng] AAC Esub -=!Katyayan!=-

 

Format                                   : Matroska
Format version                           : Version 4 / Version 2
File size                                : 915 MiB
Duration                                 : 1 h 58 min
Overall bit rate                         : 1 082 kb/s
Movie name                               : Hitch (2005) BluRay 720p x264 [Dual Audio] [Hindi - Eng] AAC Esub -=!Katyayan!=-
Attachments                              : -=!Katyayan!=-

Video
ID                                       : 1
Format                                   : AVC
Format/Info                              : Advanced Video Codec
Format profile                           : High@L4
Format settings                          : CABAC / 8 Ref Frames
Format settings, CABAC                   : Yes
Format settings, RefFrames               : 8 frames
Codec ID                                 : V_MPEG4/ISO/AVC
Duration                                 : 1 h 58 min
Bit rate                                 : 791 kb/s
Width                                    : 1 280 pixels
Height                                   : 528 pixels
Display aspect ratio                     : 2.40:1
Frame rate mode                          : Constant
Frame rate                               : 23.976 (24000/1001) FPS
Color space                              : YUV
Chroma subsampling                       : 4:2:0
Bit depth                                : 8 bits
Scan type                                : Progressive
Bits/(Pixel*Frame)                       : 0.049
Stream size                              : 669 MiB (73%)
Title                                    : Hitch (2005) BluRay 720p x264 [Dual Audio] [Hindi - Eng] AAC Esub -=!Katyayan!=-
Writing library                          : x264 core 120 r2164 da19765
Default                                  : Yes
Forced                                   : No

Audio #1
ID                                       : 2
Format                                   : AAC
Format/Info                              : Advanced Audio Codec
Format profile                           : LC
Codec ID                                 : A_AAC-2
Duration                                 : 1 h 58 min
Bit rate                                 : 224 kb/s
Channel(s)                               : 2 channels
Channel positions                        : Front: L R
Sampling rate                            : 48.0 kHz
Frame rate                               : 46.875 FPS (1024 SPF)
Compression mode                         : Lossy
Stream size                              : 190 MiB (21%)
Title                                    : -=!Katyayan!=-
Language                                 : Hindi
Default                                  : Yes
Forced                                   : Yes

Audio #2
ID                                       : 3
Format                                   : AAC
Format/Info                              : Advanced Audio Codec
Format profile                           : HE-AAC / LC
Format settings                          : Explicit
Codec ID                                 : A_AAC-2
Duration                                 : 1 h 58 min
Bit rate                                 : 64.0 kb/s
Channel(s)                               : 2 channels
Channel positions                        : Front: L R
Sampling rate                            : 48.0 kHz / 24.0 kHz
Frame rate                               : 23.438 FPS (1024 SPF)
Compression mode                         : Lossy
Stream size                              : 54.1 MiB (6%)
Title                                    : -=!Katyayan!=-
Language                                 : English
Default                                  : No
Forced                                   : No

Text
ID                                       : 4
Format                                   : UTF-8
Codec ID                                 : S_TEXT/UTF8
Codec ID/Info                            : UTF-8 Plain Text
Duration                                 : 1 h 52 min
Bit rate                                 : 79 b/s
Count of elements                        : 1528
Stream size                              : 65.7 KiB (0%)
Title                                    : -=!Katyayan!=-
Language                                 : English
Default                                  : Yes
Forced                                   : Yes



 

Category:Movies > Hollywood Dub
Lang:Hindi
Total Size:915.50 MB



|| Download This Movie Via Single Resumable Links Size: 915 MB ||

Direct-1 Google Drive | Direct-2 | Direct-3 |

Watch Online Click Here

No comments:

Post a Comment