Crazy World Only 4 You

Sorry For The Inconvenience. If You are facing link dead or no google drive file access then inform us via comment

Latest Updates

Tuesday, 5 June 2018

Jayammana Maga (2013) Hindi Dubbed - 1080p Untouched WEBHD AVC AAC - DTOne


Poster
47c89a3ea5483a0669bb8143dfa83cc0.jpg


iMDB
Imdb Picture Title: Jayammana Maga
Year: 2013
Runtime: 139 minutes
Votes: 10
Rating: 6.7/10
Language: Kannada
Country: India
All Genres: Drama
Plot Outline: A mother and a son struggle with their relationship and with paranormal activity.
Director: Vikas

Music: Arjun Janya
Cast:
Duniya Vijay as
Bharathi as
Rangayana Raghu as
Kalyani Raju as
Raghav Uday as


Details
Name:Jayammana Maga (2013) Hindi Dubbed - 1080p Untouched WEBHD AVC AAC - DTOne
Description:
Jayammana Maga (2013) Hindi Dubbed - 1080p WEBHD Untouched - DTOne

Hindi Dubbed Version is titled 'Shaktishaali No.1'
 
47c89a3ea5483a0669bb8143dfa83cc0.jpg

General
Complete name                            : Jayammana Maga (2013) Hindi Dubbed - 1080p WEBHD Untouched - DTOne.mp4
Format                                   : MPEG-4
Format profile                           : Base Media
Codec ID                                 : isom (isom/iso2/avc1/mp41)
File size                                : 2.46 GiB
Duration                                 : 1 h 53 min
Overall bit rate                         : 3 098 kb/s
Writing application                      : Lavf56.40.101

Video
ID                                       : 1
Format                                   : AVC
Format/Info                              : Advanced Video Codec
Format profile                           : High@L4
Format settings                          : CABAC / 4 Ref Frames
Format settings, CABAC                   : Yes
Format settings, RefFrames               : 4 frames
Codec ID                                 : avc1
Codec ID/Info                            : Advanced Video Coding
Duration                                 : 1 h 53 min
Bit rate                                 : 3 000 kb/s
Width                                    : 1 920 pixels
Height                                   : 1 080 pixels
Display aspect ratio                     : 16:9
Frame rate mode                          : Constant
Frame rate                               : 25.000 FPS
Color space                              : YUV
Chroma subsampling                       : 4:2:0
Bit depth                                : 8 bits
Scan type                                : Progressive
Bits/(Pixel*Frame)                       : 0.058
Stream size                              : 2.40 GiB (98%)
Writing library                          : x264 core 152 r2854 e9a5903

Audio
ID                                       : 2
Format                                   : AAC
Format/Info                              : Advanced Audio Codec
Format profile                           : LC
Codec ID                                 : mp4a-40-2
Duration                                 : 1 h 53 min
Bit rate mode                            : Constant
Bit rate                                 : 64.7 kb/s
Channel(s)                               : 2 channels
Channel positions                        : Front: L R
Sampling rate                            : 48.0 kHz
Frame rate                               : 46.875 FPS (1024 SPF)
Compression mode                         : Lossy
Stream size                              : 52.5 MiB (2%)
Default                                  : Yes
Alternate group                          : 1

4b4a0dc3f49b750e1a09a51842493d83.th.png c8364411eaf7b0a2839a17f98cff62bd.th.png e9c8638d4cd50e3c35574eb7eaf09e81.th.png cfc15c6d810116365c24309665d9b4dc.th.png ff90b8eff1f6479e180c74e53a40dcc8.th.png aae569fea8ac71416f84add0bfa81d75.th.png 113ca3d6b4653e547398835a1be78480.th.png 5810ad61fa6274d877db82c8e99f6951.th.png
Category:Movies > South Dub
Lang:Hindi
Total Size:2.46 GB



|| Download This Movie Via Single Resumable Links Size: 2.46 GB ||

Direct-1 Google Drive | Direct-2 | Direct-3 |

Watch Online Click Here

No comments:

Post a Comment