Crazy World Only 4 You

Sorry For The Inconvenience. If You are facing link dead or no google drive file access then inform us via comment

Latest Updates

Monday, 4 June 2018

Love Simon (2018) BluRay 720p x265 [Dual Audio] [Hindi DD 5.1 - Eng] AAC Esub -=!Katyayan!=-


Poster


iMDB
Imdb Picture Title: Love, Simon
Year: 2018
Runtime: 110 minutes
Votes: 21693
Rating: 8.1/10
Language: English
Country: USA
All Genres: Comedy, Drama, Romance
Plot Outline: A young coming-of-age tale about a teenage boy, Simon Spier, goes through a different kind of Romeo and Juliet story. Simon has a love connection with a boy, Blue, by email, but the only problem is that Simon has no idea who he's talking to. Simon must discover who that boy is--who Blue is. Along the way, he tries to find himself as well. Written by Paul
Tagline: He's done keeping his story straight.
Director: Greg Berlanti
Writing By: Elizabeth Berger,Isaac Aptaker,Becky Albertalli,
Produced By: Timothy M. Bourne,Marty Bowen,Wyck Godfrey,Isaac Klausner,Chris McEwen,Pouya Shahbazian,
Music: Rob Simonsen
Cast:
Nick Robinson as Simon
Jennifer Garner as Emily
Josh Duhamel as Jack
Katherine Langford as Leah
Alexandra Shipp as Abby
Logan Miller as Martin
Keiynan Lonsdale as Bram
Jorge Lendeborg Jr. as Nick
Talitha Eliana Bateman as Nora
Tony Hale as Mr. Worth
Trailers:
International Trailer #2
Trailer #2
Official Tease




Details
Name:Love Simon (2018) BluRay 720p x265 [Dual Audio] [Hindi DD 5.1 - Eng] AAC Esub -=!Katyayan!=-
Description:

Love Simon 2018 BluRay 720p x265 [Dual Audio] [Hindi DD 5.1 - Eng] AAC Esub -=!Katyayan!=-

 




-=====================Credit=====================-

:::::::::::::::::::> Video ---- MkvCage
:::::::::::::::::::> Audio ---- Rohit Sawant




Format                                   : Matroska
Format version                           : Version 4 / Version 2
File size                                : 855 MiB
Duration                                 : 1 h 49 min
Overall bit rate                         : 1 090 kb/s
Movie name                               : Love Simon 2018 BluRay 720p x265 [Dual Audio] [Hindi DD 5.1 - Eng] AAC Esub -=!Katyayan!=-
Encoded date                             : UTC 2018-06-04 06:54:30
Writing application                      : mkvmerge v19.0.0 ('Brave Captain') 32-bit
Writing library                          : libebml v1.3.5 + libmatroska v1.4.8
Cover                                    : Yes
Attachments                              : Love Simon 2018 Cover

Video
ID                                       : 1
Format                                   : HEVC
Format/Info                              : High Efficiency Video Coding
Format profile                           : Main@L3.1@Main
Codec ID                                 : V_MPEGH/ISO/HEVC
Duration                                 : 1 h 49 min
Bit rate                                 : 831 kb/s
Width                                    : 1 280 pixels
Height                                   : 536 pixels
Display aspect ratio                     : 2.40:1
Frame rate mode                          : Constant
Frame rate                               : 23.976 (24000/1001) FPS
Color space                              : YUV
Chroma subsampling                       : 4:2:0
Bit depth                                : 8 bits
Bits/(Pixel*Frame)                       : 0.051
Stream size                              : 652 MiB (76%)
Title                                    : Love Simon 2018 BluRay 720p x265 [Dual Audio] [Hindi DD 5.1 - Eng] AAC Esub -=!Katyayan!=-
Writing library                          : x265 2.6:[Windows][GCC 7.2.0][64 bit] 8bit+10bit+12bit
Language                                 : English
Default                                  : Yes
Forced                                   : No
Color range                              : Limited
Color primaries                          : BT.709
Transfer characteristics                 : BT.709
Matrix coefficients                      : BT.709

Audio #1
ID                                       : 2
Format                                   : AAC
Format/Info                              : Advanced Audio Codec
Format profile                           : LC
Codec ID                                 : A_AAC-2
Duration                                 : 1 h 49 min
Bit rate                                 : 192 kb/s
Channel(s)                               : 6 channels
Channel positions                        : Front: L C R, Side: L R, LFE
Sampling rate                            : 48.0 kHz
Frame rate                               : 46.875 FPS (1024 SPF)
Compression mode                         : Lossy
Stream size                              : 151 MiB (18%)
Title                                    : -=!Katyayan!=-
Language                                 : Hindi
Default                                  : Yes
Forced                                   : Yes

Audio #2
ID                                       : 3
Format                                   : AAC
Format/Info                              : Advanced Audio Codec
Format profile                           : HE-AAC / LC
Format settings                          : Explicit
Codec ID                                 : A_AAC-2
Duration                                 : 1 h 49 min
Bit rate                                 : 63.9 kb/s
Channel(s)                               : 2 channels
Channel positions                        : Front: L R
Sampling rate                            : 48.0 kHz / 24.0 kHz
Frame rate                               : 23.438 FPS (1024 SPF)
Compression mode                         : Lossy
Stream size                              : 50.2 MiB (6%)
Title                                    : -=!Katyayan!=-
Language                                 : English
Default                                  : No
Forced                                   : No

Text
ID                                       : 4
Format                                   : UTF-8
Codec ID                                 : S_TEXT/UTF8
Codec ID/Info                            : UTF-8 Plain Text
Duration                                 : 1 h 45 min
Bit rate                                 : 84 b/s
Count of elements                        : 1987
Stream size                              : 65.0 KiB (0%)
Title                                    : -=!Katyayan!=-
Language                                 : English
Default                                  : Yes
Forced                                   : Yes

Menu
00:00:00.000                             : :00:00:00.000
00:04:13.795                             : :00:04:13.795
00:08:39.060                             : :00:08:39.060
00:13:51.122                             : :00:13:51.122
00:18:04.041                             : :00:18:04.041
00:25:38.328                             : :00:25:38.328
00:29:25.138                             : :00:29:25.138
00:33:52.697                             : :00:33:52.697
00:42:03.438                             : :00:42:03.438
00:47:46.947                             : :00:47:46.947
00:54:15.043                             : :00:54:15.043
00:59:24.436                             : :00:59:24.436
01:02:49.391                             : :01:02:49.391
01:05:41.146                             : :01:05:41.146
01:09:55.400                             : :01:09:55.400
01:17:11.502                             : :01:17:11.502
01:20:03.674                             : :01:20:03.674
01:22:22.688                             : :01:22:22.688
01:24:27.563                             : :01:24:27.562
01:27:52.851                             : :01:27:52.851
01:32:35.633                             : :01:32:35.633
01:38:17.433                             : :01:38:17.433
01:41:13.192                             : :01:41:13.192
01:45:45.381                             : :01:45:45.339


 
Category:Movies > Hollywood Dub
Lang:Hindi
Total Size:855.46 MB



|| Download This Movie Via Single Resumable Links Size: 855 MB ||

Direct-1 Google Drive | Direct-2 | Direct-3 |

Watch Online Click Here

No comments:

Post a Comment