Crazy World Only 4 You

Sorry For The Inconvenience. If You are facing link dead or no google drive file access then inform us via comment

Latest Updates

Wednesday, 6 June 2018

Monster Hunt (2015) BluRay 720p x264 [Dual-Audio] [Hindi + Chinese] DD 5.1 - Mafiaking - M2Tv


Poster


iMDB
Imdb Picture Original Title: Zhuo yao ji
Title: Chasseur de monstres
Year: 2015
Runtime: 117 minutes
Votes: 3599
Rating: 6.2/10
Language: Mandarin
Country: China, Hong Kong
All Genres: Action, Adventure, Comedy, Fantasy
Plot Outline: In an ancient world where monsters rule the land while humans keep to their own kingdom, a baby monster, Wuba, is born to a human father and monster queen. When mortals and creatures alike set out to capture the newborn, Wuba's adventure begins. The cute baby monster Huba is the child of a human man and a monster queen, threatened by both monster-hating humans and monsters attempting to capture the new-born in an ancient world based on medieval China. Written by OJT
Tagline: The monsters just got bigger
Director: Raman Hui
Writing By: Alan Yuen,Alan Yuen,
Produced By: Yuan Cai,Bin Chang,Jessica Chen,Man Kei Chin,Zijian Dong,Kim Hung Fan,Shunkun Gu,Lee Hao,William Kong,Jianchu Lv,Zhonghuai Sun,Doris Tse,Jinghua Wang,Jun Wang,Tongyuan Wang,Huijun Wu,Angela Xiong,Chung Man Yee,Alan Yuen,Han Zhang,Allen Zhu,
Music: Leon Ko
Cast:
Baihe Bai as Huo Xiaolan
Boran Jing as Song Tianyin
Wu Jiang as Luo Gang
Elaine Jin as Grandmother
Wallace Chung as Ge Qianhu
Eric Tsang as Gao
Sandra Kwan Yue Ng as Ying
Wei Tang as Pawn Shop Owner
Chen Yao as Female Head Chef
Ni Yan as Luo Ying
Trailers:
MONSTER HUNT - Trailer


Details
Name:Monster Hunt (2015) BluRay 720p x264 [Dual-Audio][Chinese DD 5.1 + Hindi DD 5.1] - Mafiaking - M2Tv
Description:
 Monster Hunt (2015) 720p BluRay x264 [Dual-Audio][Chinese DD 5.1 + Hindi DD 5.1] - Mafiaking - M2Tv


SCREENSHOT

General
Format                                   : Matroska
Format version                           : Version 4 / Version 2
File size                                : 1.12 GiB
Duration                                 : 1h 57mn
Overall bit rate                         : 1 375 Kbps
Movie name                               : Monster Hunt (2015) 720p BluRay x264 [Dual-Audio][Chinese DD 5.1 + Hindi DD 5.1] - Mafiaking -
M2Tv
Video
ID                                       : 1
Format                                   : AVC
Format/Info                              : Advanced Video Codec
Format profile                           : [email protected]
Format settings, CABAC                   : Yes
Format settings, ReFrames                : 5 frames
Codec ID                                 : V_MPEG4/ISO/AVC
Duration                                 : 1h 57mn
Bit rate                                 : 925 Kbps
Width                                    : 1 280 pixels
Height                                   : 544 pixels
Display aspect ratio                     : 2.35:1
Frame rate mode                          : Constant
Frame rate                               : 23.976 (24000/1001) fps
Color space                              : YUV
Chroma subsampling                       : 4:2:0
Bit depth                                : 8 bits
Scan type                                : Progressive
Bits/(Pixel*Frame)                       : 0.055
Stream size                              : 775 MiB (67%)
Title                                    : Mafiaking
Language                                 : Chinese
Default                                  : Yes
Forced                                   : No
Color range                              : Limited
Color primaries                          : BT.709
Transfer characteristics                 : BT.709
Matrix coefficients                      : BT.709

Audio #1
ID                                       : 2
Format                                   : AC-3
Format/Info                              : Audio Coding 3
Mode extension                           : CM (complete main)
Format settings, Endianness              : Big
Codec ID                                 : A_AC3
Duration                                 : 1h 57mn
Bit rate mode                            : Constant
Bit rate                                 : 224 Kbps
Channel(s)                               : 6 channels
Channel positions                        : Front: L C R, Side: L R, LFE
Sampling rate                            : 48.0 KHz
Compression mode                         : Lossy
Stream size                              : 188 MiB (16%)
Title                                    : Mafiaking
Language                                 : Hindi
Default                                  : Yes
Forced                                   : No

Audio #2
ID                                       : 3
Format                                   : AC-3
Format/Info                              : Audio Coding 3
Mode extension                           : CM (complete main)
Format settings, Endianness              : Big
Codec ID                                 : A_AC3
Duration                                 : 1h 57mn
Bit rate mode                            : Constant
Bit rate                                 : 224 Kbps
Channel(s)                               : 6 channels
Channel positions                        : Front: L C R, Side: L R, LFE
Sampling rate                            : 48.0 KHz
Compression mode                         : Lossy
Stream size                              : 188 MiB (16%)
Title                                    : Mafiaking
Language                                 : Chinese
Default                                  : No
Forced                                   : No

SCREENSHOT

**To View Image In Full Size Click on Thumbnails**

           
Category:Movies > Hollywood Dub
Lang:Hindi
Total Size:1.13 GB



|| Download This Movie Via Single Resumable Links Size: 1.12 GB ||

Direct-1 Google Drive | Direct-2 | Direct-3 |

Watch Online Click Here

No comments:

Post a Comment