Crazy World Only 4 You

Sorry For The Inconvenience. If You are facing link dead or no google drive file access then inform us via comment

Latest Updates

Sunday, 10 June 2018

National Treasure (2004) BluRay 720p Dual Audio [Hindi-English] x264 AAC ~ KartiKing ~


Poster

4a22bea6cbee47a6963dd9a42fcbca67.jpg


iMDB
Imdb Picture Title: National Treasure
Year: 2004
Runtime: 131 minutes
Votes: 265424
Rating: 6.9/10
Language: English, Spanish
Country: USA
All Genres: Action, Adventure, Family, Mystery, Thriller
Plot Outline: A historian races to find the legendary Templar Treasure before a team of mercenaries.
Tagline: The clues are right in front of your eyes.
Director: Jon Turteltaub
Writing By: Jim Kouf,Cormac Wibberley,Marianne Wibberley,Jim Kouf,Oren Aviv,Charles Segars,
Produced By: Oren Aviv,Jerry Bruckheimer,Benjamin Melniker,Chad Oman,Pat Sandston,Charles Segars,Christina Steinberg,Mike Stenson,Jon Turteltaub,Michael E. Uslan,Barry H. Waldman,
Music: Trevor Rabin
Plot:
Benjamin Franklin Gates descends from a family of treasure-seekers who've all hunted for the same thing: a war chest hidden by the Founding Fathers after the Revolutionary War. Ben's close to discovering its whereabouts, as is his competition, but the FBI is also hip to the hunt.
- Written by IMDb Editors
Ben Gates comes from a family of treasure hunters. Now his grandfather believes that the forefathers' buried a treasure somewhere in the country and have placed clues everywhere but unfortunately the clues are highly cryptic and scaterred all over the place. Now Ben thinks he has found it but it only leads him to another clue which is on the back of the Declaration of Independence. Now one of his associates Ian wants to steal it so that they could get the clue but Ben refuses to do it so he tries to kill Ben. But Ben evades him and tries to warn the authorities about Ian's plans but they don't believe him. So Ben takes it upon himself to steal it in order to protect it. And he does but Abigail Chase the curator of the National Archives, where it is kept, discovers what he has done and tries to stop him but gets caught in the crossfire between Ben and Ian, so Ben takes her with him. While she doesdn't believe him, he is determined to prove he is right about the treasure. But it won't be easy cause Ian's always a step behind him and he is being hunted by the FBI.
- Written by rcs0411@yahoo.com
Since childhood, Benjamin Franklin Gates has known that he is decended from a long line of people whose job is to guard a treasure hidden by the Founding Fathers, who hid clues to its whereabouts in the country's currency and on the back of the Declaration of Independence. Now, he has learned of a plot to steal the Declaration, and has only one option: steal it himself. Even if he pulls off this monumental task, keeping the treasure safe is still going to be incredibly hard, especially since the FBI has also gotten wind of the scheme.
- Written by rmlohner
A historian races to find the legendary Templar Treasure before a team of mercenaries.
- Written by rball4042
Cast:
Nicolas Cage as Benjamin Franklin Gates
Diane Kruger as Abigail Chase
Justin Bartha as Riley Poole
Sean Bean as Ian Howe
Jon Voight as Patrick Gates
Harvey Keitel as Sadusky
Christopher Plummer as John Adams Gates
David Dayan Fisher as Shaw
Stewart Finlay-McLennan as Powell
Oleg Taktarov as Shippen



Details
Name:National Treasure (2004) BluRay 720p Dual Audio [Hindi-English] x264 AAC ~ KartiKing ~
Description:
National Treasure (2004) BluRay 720p Dual Audio [Hindi-English] x264 AAC ~ KartiKing ~

4a22bea6cbee47a6963dd9a42fcbca67.jpg


Format                                   : Matroska
Format version                           : Version 4 / Version 2
File size                                : 850 MiB
Duration                                 : 2 h 11 min
Overall bit rate                         : 906 kb/s
Encoded date                             : UTC 2018-06-09 10:28:21
Writing application                      : mkvmerge v20.0.0 ('I Am The Sun') 32-bit
Writing library                          : libebml v1.3.5 + libmatroska v1.4.8

Video
ID                                       : 1
Format                                   : AVC
Format/Info                              : Advanced Video Codec
Format profile                           : High@L4
Format settings                          : CABAC / 12 Ref Frames
Format settings, CABAC                   : Yes
Format settings, RefFrames               : 12 frames
Codec ID                                 : V_MPEG4/ISO/AVC
Duration                                 : 2 h 11 min
Bit rate                                 : 808 kb/s
Width                                    : 1 280 pixels
Height                                   : 532 pixels
Display aspect ratio                     : 2.40:1
Frame rate mode                          : Constant
Frame rate                               : 23.976 (24000/1001) FPS
Color space                              : YUV
Chroma subsampling                       : 4:2:0
Bit depth                                : 8 bits
Scan type                                : Progressive
Bits/(Pixel*Frame)                       : 0.049
Stream size                              : 757 MiB (89%)
Language                                 : English
Default                                  : Yes
Forced                                   : Yes

Audio #1
ID                                       : 2
Format                                   : AAC
Format/Info                              : Advanced Audio Codec
Format profile                           : HE-AAC / LC
Format settings                          : Explicit
Codec ID                                 : A_AAC-2
Duration                                 : 2 h 1 min
Bit rate                                 : 36.0 kb/s
Channel(s)                               : 2 channels
Channel positions                        : Front: L R
Sampling rate                            : 48.0 kHz / 24.0 kHz
Frame rate                               : 23.438 FPS (1024 SPF)
Compression mode                         : Lossy
Stream size                              : 31.4 MiB (4%)
Language                                 : English
Default                                  : No
Forced                                   : No

Audio #2
ID                                       : 3
Format                                   : AAC
Format/Info                              : Advanced Audio Codec
Format profile                           : LC
Codec ID                                 : A_AAC-2
Duration                                 : 2 h 1 min
Bit rate                                 : 66.2 kb/s
Channel(s)                               : 2 channels
Channel positions                        : Front: L R
Sampling rate                            : 44.1 kHz
Frame rate                               : 43.066 FPS (1024 SPF)
Compression mode                         : Lossy
Stream size                              : 58.7 MiB (7%)
Language                                 : Hindi
Default                                  : Yes
Forced                                   : Yes

df849f321f9302f7fb0a267c0313dc56.jpg
Category:Movies > Hollywood Dub
Lang:Hindi
Total Size:856.73 MB



|| Download This Movie Via Single Resumable Links Size: 850 MB ||

Direct-1 Google Drive | Direct-2 | Direct-3 |

Watch Online Click Here

No comments:

Post a Comment