Crazy World Only 4 You

Sorry For The Inconvenience. If You are facing link dead or no google drive file access then inform us via comment

Latest Updates

Sunday, 10 June 2018

National Treasure: Book of Secrets (2007) BluRay 720p Dual Audio [Hindi DD5.1 - English] x264 AAC ~ KartiKing ~


Poster

e3007bde65e50c2e184ec3bba4f5b36b.jpg


iMDB
Imdb Picture Title: National Treasure: Book of Secrets
Year: 2007
Runtime: 124 minutes
Votes: 198467
Rating: 6.5/10
Language: English, French
Country: USA
All Genres: Action, Adventure, Family, Mystery, Thriller
Plot Outline: While Ben Gates is presenting new information about John Wilkes Booth and the 18 pages missing from Booth's diary, a man by the name of Mitch Wilkinson stands up and presents a missing page of John Wilkes Booth's diary. Thomas Gates, Ben's great-grandfather, is mentioned on the page. It shows that Ben's great-grandfather was a co-conspirator in Abraham Lincoln's murder. When doing more research, the conspiracy takes Ben, Abigail Chase, and Riley Poole to Buckingham Palace (which they break into). They discover a plank that has early Native American writing on it. The plank has only one symbol that Patrick Gates can identify. The symbol is Cibola (see-bowl-uh) meaning the City of Gold. In order to define the rest they have to go to Ben's mother, Patrick's divorced wife. After 32 years it brings back old arguments. After that the other clue is in the President's desk in the Oval Office in the White House (which Ben and Abigail sneak into) to discover that the clue lies in The ... Written by mviedirctr354
Director: Jon Turteltaub
Writing By: Marianne Wibberley,Cormac Wibberley,Gregory Poirier,Marianne Wibberley,Cormac Wibberley,Ted Elliott,Terry Rossio,Jim Kouf,Oren Aviv,Charles Segars,
Produced By: Oren Aviv,John Bernard,Jerry Bruckheimer,Chad Oman,Selwyn Roberts,Pat Sandston,Charles Segars,Mike Stenson,Jon Turteltaub,Barry H. Waldman,
Music: Trevor Rabin
Cast:
Nicolas Cage as Ben Gates
Justin Bartha as Riley Poole
Diane Kruger as Abigail Chase
Jon Voight as Patrick Gates
Helen Mirren as Emily Appleton
Ed Harris as Mitch Wilkinson
Harvey Keitel as Sadusky
Bruce Greenwood as The President
Ty Burrell as Connor
Michael Maize as Daniel
Trailers:
U.S. theatrical trailer: National Treasure: Book of Secrets
National Treasure: Book of Secrets



Details
Name:National Treasure: Book of Secrets (2007) BluRay 720p Dual Audio [Hindi DD5.1 - English] x264 AAC ~ KartiKing ~
Description:
National Treasure: Book of Secrets (2007) BluRay 720p Dual Audio [Hindi DD5.1 - English] x264 AAC ~ KartiKing ~

e3007bde65e50c2e184ec3bba4f5b36b.jpg

Format                                   : Matroska
Format version                           : Version 4 / Version 2
File size                                : 1.31 GiB
Duration                                 : 2 h 5 min
Overall bit rate                         : 1 498 kb/s
Encoded date                             : UTC 2018-06-09 11:48:24
Writing application                      : mkvmerge v20.0.0 ('I Am The Sun') 32-bit
Writing library                          : libebml v1.3.5 + libmatroska v1.4.8

Video
ID                                       : 1
Format                                   : AVC
Format/Info                              : Advanced Video Codec
Format profile                           : High@L4
Format settings                          : CABAC / 8 Ref Frames
Format settings, CABAC                   : Yes
Format settings, RefFrames               : 8 frames
Codec ID                                 : V_MPEG4/ISO/AVC
Duration                                 : 2 h 4 min
Bit rate                                 : 1 031 kb/s
Width                                    : 1 280 pixels
Height                                   : 528 pixels
Display aspect ratio                     : 2.40:1
Frame rate mode                          : Constant
Frame rate                               : 23.976 (24000/1001) FPS
Color space                              : YUV
Chroma subsampling                       : 4:2:0
Bit depth                                : 8 bits
Scan type                                : Progressive
Bits/(Pixel*Frame)                       : 0.064
Stream size                              : 918 MiB (68%)
Default                                  : Yes
Forced                                   : Yes

Audio #1
ID                                       : 2
Format                                   : AAC
Format/Info                              : Advanced Audio Codec
Format profile                           : LC
Codec ID                                 : A_AAC-2
Duration                                 : 2 h 4 min
Bit rate                                 : 86.1 kb/s
Channel(s)                               : 2 channels
Channel positions                        : Front: L R
Sampling rate                            : 48.0 kHz
Frame rate                               : 46.875 FPS (1024 SPF)
Compression mode                         : Lossy
Delay relative to video                  : 9 ms
Stream size                              : 76.7 MiB (6%)
Language                                 : English
Default                                  : No
Forced                                   : No

Audio #2
ID                                       : 3
Format                                   : AC-3
Format/Info                              : Audio Coding 3
Codec ID                                 : A_AC3
Duration                                 : 2 h 5 min
Bit rate mode                            : Constant
Bit rate                                 : 384 kb/s
Channel(s)                               : 6 channels
Channel positions                        : Front: L C R, Side: L R, LFE
Sampling rate                            : 48.0 kHz
Frame rate                               : 31.250 FPS (1536 SPF)
Bit depth                                : 16 bits
Compression mode                         : Lossy
Stream size                              : 344 MiB (26%)
Language                                 : Hindi
Service kind                             : Complete Main
Default                                  : Yes
Forced                                   : Yes

03de537b2dd95eff41d6ce3ce15e7391.jpg
Category:Movies > Hollywood Dub
Lang:Hindi
Total Size:1.32 GB



|| Download This Movie Via Single Resumable Links Size: 1.31 GB ||

Direct-1 Google Drive | Direct-2 | Direct-3 |

Watch Online Click Here

No comments:

Post a Comment