Crazy World Only 4 You

Sorry For The Inconvenience. If You are facing link dead or no google drive file access then inform us via comment

Latest Updates

Friday, 8 June 2018

Pandigai (2017) UNCUT 720p HDRip x264 ESubs[Dual Audio] [Hindi (Original) - Tamil] - 1.6GB


Poster
5f5b44e443f011a22c27fdd59965de83.jpg


iMDB

Title: Pandigai
Year: 2017
Language: Tamil
Country: India
All Genres: Action, Thriller
Director: Feroz
Writing By: Feroz,
Produced By: Vijayalakshmi Ahathian,
Music: R.H. Vikram
Cast:
Anandhi as
Kreshna as
Pandi as
Aathma Patrick as
Madhusudhan Rao as
Saravanan as
Nitin Sathya as



Details
Name:Pandigai (2017) UNCUT 720p HDRip x264 ESubs[Dual Audio] [Hindi (Original) - Tamil] [MovCr]
Description:
Pandigai (2017) UNCUT 720p HDRip x264 ESubs[Dual Audio] [Hindi (Original) - Tamil] - 1.6GB
 


Format                      : Matroska
Format version              : Version 4 / Version 2
File size                   : 1.59 GiB
Duration                    : 2 h 10 min
Overall bit rate            : 1 746 kb/s

Video
ID                          : 1
Format                      : AVC
Format/Info                 : Advanced Video Codec
Format profile              : High@L3.1
Format settings, CABAC      : Yes
Format settings, ReFrames   : 4 frames
Codec ID                    : V_MPEG4/ISO/AVC
Duration                    : 2 h 10 min
Bit rate                    : 1 424 kb/s
Width                       : 1 280 pixels
Height                      : 568 pixels
Display aspect ratio        : 2.25:1
Frame rate mode             : Constant
Frame rate                  : 24.000 FPS
Color space                 : YUV
Chroma subsampling          : 4:2:0
Bit depth                   : 8 bits
Scan type                   : Progressive
Bits/(Pixel*Frame)          : 0.082
Stream size                 : 1.30 GiB (82%)
Writing library             : x264 core 148 r2744 b97ae06
Language                    : English
Default                     : Yes
Forced                      : Yes

Audio #1
ID                          : 2
Format                      : MPEG Audio
Format version              : Version 1
Format profile              : Layer 3
Mode                        : Joint stereo
Mode extension              : MS Stereo
Codec ID                    : A_MPEG/L3
Codec ID/Hint               : MP3
Duration                    : 2 h 10 min
Bit rate mode               : Constant
Bit rate                    : 160 kb/s
Channel(s)                  : 2 channels
Sampling rate               : 44.1 kHz
Frame rate                  : 38.281 FPS (1152 spf)
Compression mode            : Lossy
Stream size                 : 149 MiB (9%)
Writing library             : LAME3.98.2
Language                    : Hindi
Default                     : Yes
Forced                      : Yes

Audio #2
ID                          : 3
Format                      : AC-3
Format/Info                 : Audio Coding 3
Mode extension              : CM (complete main)
Format settings, Endianness : Big
Codec ID                    : A_AC3
Duration                    : 2 h 10 min
Bit rate mode               : Constant
Bit rate                    : 160 kb/s
Channel(s)                  : 6 channels
Channel positions           : Front: L C R, Side: L R, LFE
Sampling rate               : 44.1 kHz
Frame rate                  : 28.711 FPS (1536 spf)
Bit depth                   : 16 bits
Compression mode            : Lossy
Stream size                 : 149 MiB (9%)
Language                    : English
Default                     : No
Forced                      : Yes



                           
Category:Movies > South Dub
Lang:Hindi
Total Size:1.59 GB



|| Download This Movie Via Single Resumable Links Size: 1.59 GB ||

Direct-1 Google Drive | Direct-2 | Direct-3 |

Watch Online Click Here

No comments:

Post a Comment