Crazy World Only 4 You

Sorry For The Inconvenience. If You are facing link dead or no google drive file access then inform us via comment

Latest Updates

Saturday, 2 June 2018

Sairat (2016) Marathi 720p WEB-DL x264 AAC - MkvCage


Poster


iMDB
Imdb Picture Title: Sairat
Year: 2016
Runtime: 174 minutes
Votes: 5793
Rating: 8.5/10
Language: Marathi
Country: India
All Genres: Drama, Romance
Plot Outline: In interior Maharashtra, a fisherman's son and a local politician's daughter fall in love against the restrictions of caste hierarchy.
Director: Nagraj Manjule
Writing By: Nagraj Manjule,Nagraj Manjule,Bharat Manjule,
Produced By: Nishant Roy Bombarde,Kulkarni Gargee,Nitin Keni,Nagraj Manjule,Nikhil Sane,
Music: Ajay Gogavale Atul Gogavale
Plot:
Sairat is a love story, as advertised. Aarchi , a rich upper class girl falls for her classmate Parshya , a poor but smart boy from the lower social strata. The magic happens, and they start seeing each other. Secretly at first, but they get bolder with passing time. The problem is that Aarchi is not just from the upper class, her father is a powerful politician, and her brother Prince is following in on his footsteps. The entire affair is a recipe for trouble, and as expected, trouble arrives. With the help of Parshya's friends, Baalya and Salya, they decide to make a run for it, but fate has other plans.
- Written by jadhav-kishore
In interior Maharashtra, a fisherman's son and a local politician's daughter fall in love against the restrictions of caste hierarchy.
- Written by Gaurav Kale
Cast:
Rinku Rajguru as Archana Patil (Archie)
Akash Thosar as Prashant Kale (Parshya)
Arbaz Shaikh as Salim Shaikh (Sallya)
Tanaji Galgunde as Pradeep Bansode (Langdya)
Suresh Vishwakarma as Patil 'Tatya' (Archie's Father)
Suraj Pawar as Prince
Anuja Mule as Annie
Bhushan Manjule as Shaid
Chhaya Kadam as Suman
Rubina Inamdar as Sapna

Details
Name:Sairat (2016) Marathi 720p WEB-DL x264 AAC - MkvCage
Description:
Sairat (2016) Marathi 720p WEB-DL x264 AAC - MkvCage

 

   Format                                   : Matroska
   Format version                           : Version 4 / Version 2
   File size                                : 1.32 GiB
   Duration                                 : 2 h 53 min
   Overall bit rate                         : 1 092 kb/s
   
   Video
   ID                                       : 2
   Format                                   : AVC
   Format/Info                              : Advanced Video Codec
   Format profile                           : High@L4.1
   Format settings, CABAC                   : Yes
   Format settings, ReFrames                : 5 frames
   Codec ID                                 : V_MPEG4/ISO/AVC
   Duration                                 : 2 h 53 min
   Bit rate                                 : 1 026 kb/s
   Width                                    : 1 280 pixels
   Height                                   : 542 pixels
   Display aspect ratio                     : 2.35:1
   Frame rate mode                          : Constant
   Frame rate                               : 24.000 FPS
   Color space                              : YUV
   Chroma subsampling                       : 4:2:0
   Bit depth                                : 8 bits
   Scan type                                : Progressive
   Bits/(Pixel*Frame)                       : 0.062
   Stream size                              : 1.24 GiB (94%)
   Writing library                          : x264 core 133 r2334 a3ac64b
   Default                                  : Yes
   Forced                                   : No
   
   Audio
   ID                                       : 1
   Format                                   : AAC
   Format/Info                              : Advanced Audio Codec
   Format profile                           : HE-AAC / LC
   Codec ID                                 : A_AAC
   Duration                                 : 2 h 53 min
   Bit rate                                 : 64.0 kb/s
   Channel(s)                               : 2 channels
   Channel positions                        : Front: L R
   Sampling rate                            : 48.0 kHz / 24.0 kHz
   Frame rate                               : 23.438 FPS (1024 spf)
   Compression mode                         : Lossy
   Delay relative to video                  : 31 ms
   Stream size                              : 79.4 MiB (6%)
   Language                                 : Marathi
   Default                                  : Yes
   Forced                                   : No
   
   Text
   ID                                       : 3
   Format                                   : UTF-8
   Codec ID                                 : S_TEXT/UTF8
   Codec ID/Info                            : UTF-8 Plain Text
   Duration                                 : 2 h 46 min
   Bit rate                                 : 37 b/s
   Count of elements                        : 1606
   Stream size                              : 45.9 KiB (0%)
   Language                                 : English
   Default                                  : Yes
   Forced                                   : No

 

Category:Movies > WEB-HD
Lang:Marathi
Total Size:1.32 GB



|| Download This Movie Via Single Resumable Links Size: 1.32 GB ||

Direct-1 Google Drive | Direct-2 | Direct-3 |

Watch Online Click Here

No comments:

Post a Comment