Crazy World Only 4 You

Sorry For The Inconvenience. If You are facing link dead or no google drive file access then inform us via comment

Latest Updates

Wednesday, 6 June 2018

Savages (2012) Unrated BluRay 720p x264 Dual Audio [Hindi DD5.1 - English DD2.0] - Esub ~ Ranvijay


Poster


iMDB
Imdb Picture Title: Savages
Year: 2012
Runtime: 131 minutes
Votes: 111679
Rating: 6.5/10
Language: English
Country: USA
All Genres: Crime, Drama, Thriller
Plot Outline: In California, the former Navy SEAL Chon and his best friend, the peaceful botanist Ben, are successful entrepreneurs producing and dealing high-quality weed. Chon brought seeds from Afghanistan and Ben used his knowledge to develop the best marijuana in the country. Chon and Ben share the pothead lover Ophelia and she loves both of them since they complete each other - Chon is a powerful and strong lover and Ben is a sensible and loving lover. Their comfortable life changes when the Mexican Baja Cartel demands a partnership in their business. Chon and Ben refuse the deal and the leader of the cartel Elena sends her right-arm in America, Lado, to abduct Ophelia to press the American drug dealers. Chon and Ben ask the support of the dirty DEA Agent Dennis and get inside information to begin a secret war against the Baja Cartel to release Ophelia. Written by Claudio Carvalho, Rio de Janeiro, Brazil
Director: Oliver Stone
Writing By: Shane Salerno,Don Winslow,Oliver Stone,Don Winslow,
Produced By: Todd Arnow,Evan Bates,Moritz Borman,Rene Kock,Eric Kopeloff,Shane Salerno,Fernando Sulichin,
Music: Adam Peters
Cast:
Blake Lively as O
Taylor Kitsch as Chon
Aaron Taylor-Johnson as Ben
Jana Banker as Volleyball Girl
Candra Docherty as Grow House Girl
Nana Ghana as Bicycle Delivery Girl
Gary Stretch as Bad Ass Biker
Benicio Del Toro as Lado
Diego CataƱo as Esteban
Shea Whigham as Chad
Trailers:
No. 1



Details
Name:Savages (2012) Unrated BluRay 720p x264 Dual Audio [Hindi DD5.1 - English DD2.0] - Esub ~ Ranvi...
Description:
Savages (2012) Unrated BluRay 720p x264 Dual Audio [Hindi DD5.1 - English DD2.0] - Esub ~ Ranvijay

 


Thanks To Hammer For Audio And Peter Parker For Sync

Format : Matroska
Format version : Version 4 / Version 2
File size : 1.35 GiB
Duration : 2 h 21 min
Overall bit rate : 1 374 kb/s
Movie name : Savages (2012) Unrated 720p BluRay x264 Dual Audio [Hindi DD5.1 - English DD2.0] - Esub ~ Ranvijay

Video
ID : 1
Format : AVC
Duration : 2 h 21 min
Bit rate : 906 kb/s
Width : 1 280 pixels
Height : 532 pixels
Display aspect ratio : 2.40:1
Frame rate mode : Constant
Frame rate : 23.976 (24000/1001) FPS
Color space : YUV
Chroma subsampling : 4:2:0
Bit depth : 8 bits
Scan type : Progressive
Bits/(Pixel*Frame) : 0.055
Stream size : 915 MiB (66%)
Title : ~Ranvijay~
Default : Yes
Forced : No

Audio #1
ID : 2
Format : AC-3
Format/Info : Audio Coding 3
Codec ID : A_AC3
Duration : 2 h 21 min
Bit rate mode : Constant
Bit rate : 384 kb/s
Channel(s) : 6 channels
Channel positions : Front: L C R, Side: L R, LFE
Sampling rate : 48.0 kHz
Frame rate : 31.250 FPS (1536 SPF)
Bit depth : 16 bits
Compression mode : Lossy
Stream size : 388 MiB (28%)
Title : ~Ranvijay~
Language : Hindi
Service kind : Complete Main
Default : Yes
Forced : No

Audio #2
ID : 3
Format : AAC
Format/Info : Advanced Audio Codec
Format profile : LC
Codec ID : A_AAC-2
Duration : 2 h 21 min
Bit rate : 81.4 kb/s
Channel(s) : 2 channels
Channel positions : Front: L R
Sampling rate : 48.0 kHz
Frame rate : 46.875 FPS (1024 SPF)
Compression mode : Lossy
Delay relative to video : 9 ms
Stream size : 82.2 MiB (6%)
Title : ~Ranvijay~
Language : English
Default : No
Forced : No

Text
ID : 4
Format : UTF-8
Codec ID : S_TEXT/UTF8
Codec ID/Info : UTF-8 Plain Text
Duration : 2 h 15 min
Bit rate : 58 b/s
Count of elements : 1729
Stream size : 58.2 KiB (0%)
Title : ~Ranvijay~
Language : English
Default : No
Forced : No

Menu #2
00:00:00.000 : :Chapter 01
00:06:42.151 : :Chapter 02
00:13:40.736 : :Chapter 03
00:20:58.215 : :Chapter 04
00:24:36.933 : :Chapter 05
00:31:40.899 : :Chapter 06
00:41:50.257 : :Chapter 07
00:48:33.869 : :Chapter 08
00:57:19.519 : :Chapter 09
01:02:04.554 : :Chapter 10
01:11:21.819 : :Chapter 11
01:19:53.747 : :Chapter 12
01:28:03.236 : :Chapter 13
01:36:29.867 : :Chapter 14
01:43:49.848 : :Chapter 15
01:48:41.348 : :Chapter 16
01:56:37.031 : :Chapter 17
02:02:58.496 : :Chapter 18
02:11:47.024 : :Chapter 19
02:16:49.910 : :Chapter 20
02:21:09.669 : :Chapter 21

 
                   

Category:Movies > Hollywood Dub
Lang:Hindi
Total Size:1.35 GB



|| Download This Movie Via Single Resumable Links Size: 1.35 GB ||

Direct-1 Google Drive | Direct-2 | Direct-3 |

Watch Online Click Here

No comments:

Post a Comment