Shaun of the Dead (2004) BluRay 720p x264 [Dual Audio] [Hindi DD 5.1 - Eng] AAC Msub -=!Katyayan!=-


Poster


iMDB
Imdb Picture Title: Shaun of the Dead
Year: 2004
Runtime: 99 minutes
Votes: 430047
Rating: 8.0/10
Language: English
Country: UK, France
All Genres: Comedy, Horror
Plot Outline: A man decides to turn his moribund life around by winning back his ex-girlfriend, reconciling his relationship with his mother, and dealing with an entire community that has returned from the dead to eat the living.
Tagline: Shuffling into theaters September 24th.
Director: Edgar Wright
Writing By: Simon Pegg,Edgar Wright,
Produced By: Tim Bevan,Eric Fellner,Mark Hudson,Alison Owen,Nira Park,Ronaldo Vasconcellos,Natascha Wharton,James Wilson,
Music: Dan Mudford Pete Woodhead
Cast:
Simon Pegg as Shaun
Kate Ashfield as Liz
Nick Frost as Ed
Lucy Davis as Dianne
Dylan Moran as David
Nicola Cunningham as Mary
Keir Mills as Clubber 1
Matt Jaynes as Clubber 2
Gavin Ferguson as Football Kid
Peter Serafinowicz as Pete


Details
Name:Shaun of the Dead (2004) BluRay 720p x264 [Dual Audio] [Hindi DD 5.1 - Eng] AAC Msub -=!Katyaya...
Description:

Shaun of the Dead (2004) BluRay 720p x264 [Dual Audio] [Hindi DD 5.1 - Eng] AAC Msub -=!Katyayan!=-

 
 -=====================Source Credit=====================-
:::::::::::::::::::> Video ---- RARBG
:::::::::::::::::::> Audio ---- Hammer


Format                                   : Matroska
Format version                           : Version 4 / Version 2
File size                                : 1 000 MiB
Duration                                 : 1 h 39 min
Overall bit rate                         : 1 406 kb/s
Movie name                               : Shaun of the Dead (2004) BluRay 720p x264 [Dual Audio] [Hindi DD 5.1 - Eng] AAC Msub -=!Katyayan!=-
Encoded date                             : UTC 2018-06-23 09:58:56
Writing application                      : mkvmerge v19.0.0 ('Brave Captain') 32-bit
Writing library                          : libebml v1.3.5 + libmatroska v1.4.8
Cover                                    : Yes
Attachments                              : Shaun of the Dead (2004) Cover

Video
ID                                       : 1
Format                                   : AVC
Format/Info                              : Advanced Video Codec
Format profile                           : High@L3.1
Format settings                          : CABAC / 4 Ref Frames
Format settings, CABAC                   : Yes
Format settings, RefFrames               : 4 frames
Codec ID                                 : V_MPEG4/ISO/AVC
Duration                                 : 1 h 39 min
Bit rate                                 : 1 107 kb/s
Width                                    : 1 280 pixels
Height                                   : 562 pixels
Display aspect ratio                     : 2.25:1
Original display aspect ratio            : 2.25:1
Frame rate mode                          : Constant
Frame rate                               : 25.000 FPS
Color space                              : YUV
Chroma subsampling                       : 4:2:0
Bit depth                                : 8 bits
Scan type                                : Progressive
Bits/(Pixel*Frame)                       : 0.062
Stream size                              : 780 MiB (78%)
Title                                    : Shaun of the Dead (2004) BluRay 720p x264 [Dual Audio] [Hindi DD 5.1 - Eng] AAC Msub -=!Katyayan!=-
Writing library                          : x264 core 148 r2643 5c65704
Language                                 : English
Default                                  : Yes
Forced                                   : No

Audio #1
ID                                       : 2
Format                                   : AAC
Format/Info                              : Advanced Audio Codec
Format profile                           : LC
Codec ID                                 : A_AAC-2
Duration                                 : 1 h 39 min
Bit rate                                 : 192 kb/s
Channel(s)                               : 6 channels
Channel positions                        : Front: L C R, Side: L R, LFE
Sampling rate                            : 48.0 kHz
Frame rate                               : 46.875 FPS (1024 SPF)
Compression mode                         : Lossy
Stream size                              : 137 MiB (14%)
Title                                    : -=!Katyayan!=-
Language                                 : Hindi
Default                                  : Yes
Forced                                   : Yes

Audio #2
ID                                       : 3
Format                                   : AAC
Format/Info                              : Advanced Audio Codec
Format profile                           : HE-AAC / LC
Format settings                          : Explicit
Codec ID                                 : A_AAC-2
Duration                                 : 1 h 39 min
Bit rate                                 : 64.0 kb/s
Channel(s)                               : 2 channels
Channel positions                        : Front: L R
Sampling rate                            : 48.0 kHz / 24.0 kHz
Frame rate                               : 23.438 FPS (1024 SPF)
Compression mode                         : Lossy
Stream size                              : 45.5 MiB (5%)
Title                                    : -=!Katyayan!=-
Language                                 : English
Default                                  : No
Forced                                   : No

Text #1
ID                                       : 4
Format                                   : VobSub
Muxing mode                              : zlib
Codec ID                                 : S_VOBSUB
Codec ID/Info                            : Picture based subtitle format used on DVDs
Duration                                 : 1 h 33 min
Bit rate                                 : 7 312 b/s
Count of elements                        : 1590
Stream size                              : 4.87 MiB (0%)
Title                                    : -=!Katyayan!=-
Language                                 : Japanese
Default                                  : No
Forced                                   : No

Text #2
ID                                       : 5
Format                                   : VobSub
Muxing mode                              : zlib
Codec ID                                 : S_VOBSUB
Codec ID/Info                            : Picture based subtitle format used on DVDs
Duration                                 : 1 h 34 min
Bit rate                                 : 12.9 kb/s
Count of elements                        : 1541
Stream size                              : 8.69 MiB (1%)
Title                                    : -=!Katyayan!=-
Language                                 : English
Default                                  : Yes
Forced                                   : Yes

Text #3
ID                                       : 6
Format                                   : VobSub
Muxing mode                              : zlib
Codec ID                                 : S_VOBSUB
Codec ID/Info                            : Picture based subtitle format used on DVDs
Duration                                 : 1 h 38 min
Bit rate                                 : 9 597 b/s
Count of elements                        : 1256
Stream size                              : 6.76 MiB (1%)
Title                                    : -=!Katyayan!=-
Language                                 : Portuguese
Default                                  : No
Forced                                   : No

Text #4
ID                                       : 7
Format                                   : VobSub
Muxing mode                              : zlib
Codec ID                                 : S_VOBSUB
Codec ID/Info                            : Picture based subtitle format used on DVDs
Duration                                 : 1 h 38 min
Bit rate                                 : 9 064 b/s
Count of elements                        : 1255
Stream size                              : 6.38 MiB (1%)
Title                                    : -=!Katyayan!=-
Language                                 : Danish
Default                                  : No
Forced                                   : No

Text #5
ID                                       : 8
Format                                   : VobSub
Muxing mode                              : zlib
Codec ID                                 : S_VOBSUB
Codec ID/Info                            : Picture based subtitle format used on DVDs
Duration                                 : 1 h 38 min
Bit rate                                 : 8 762 b/s
Count of elements                        : 1251
Stream size                              : 6.17 MiB (1%)
Title                                    : -=!Katyayan!=-
Language                                 : Finnish
Default                                  : No
Forced                                   : No

Text #6
ID                                       : 9
Format                                   : VobSub
Muxing mode                              : zlib
Codec ID                                 : S_VOBSUB
Codec ID/Info                            : Picture based subtitle format used on DVDs
Duration                                 : 1 h 38 min
Bit rate                                 : 9 671 b/s
Count of elements                        : 1382
Stream size                              : 6.81 MiB (1%)
Title                                    : -=!Katyayan!=-
Language                                 : Spanish
Default                                  : No
Forced                                   : No

Text #7
ID                                       : 10
Format                                   : VobSub
Muxing mode                              : zlib
Codec ID                                 : S_VOBSUB
Codec ID/Info                            : Picture based subtitle format used on DVDs
Duration                                 : 1 h 38 min
Bit rate                                 : 8 573 b/s
Count of elements                        : 1253
Stream size                              : 6.04 MiB (1%)
Title                                    : -=!Katyayan!=-
Language                                 : Norwegian
Default                                  : No
Forced                                   : No

Text #8
ID                                       : 11
Format                                   : VobSub
Muxing mode                              : zlib
Codec ID                                 : S_VOBSUB
Codec ID/Info                            : Picture based subtitle format used on DVDs
Duration                                 : 1 h 38 min
Bit rate                                 : 9 931 b/s
Count of elements                        : 1381
Stream size                              : 6.99 MiB (1%)
Title                                    : -=!Katyayan!=-
Language                                 : Russian
Default                                  : No
Forced                                   : No

Text #9
ID                                       : 12
Format                                   : VobSub
Muxing mode                              : zlib
Codec ID                                 : S_VOBSUB
Codec ID/Info                            : Picture based subtitle format used on DVDs
Duration                                 : 1 h 38 min
Bit rate                                 : 9 183 b/s
Count of elements                        : 1252
Stream size                              : 6.46 MiB (1%)
Title                                    : -=!Katyayan!=-
Language                                 : Swedish
Default                                  : No
Forced                                   : No


 
Category:Movies > Hollywood Dub
Lang:Hindi
Total Size:1,000.53 MB



|| Download This Movie Via Single Resumable Links Size: 1000 MB ||

Direct-1 Google Drive | Direct-2 | Direct-3 |

Watch Online Click Here

Post a Comment

0 Comments