Crazy World Only 4 You

Sorry For The Inconvenience. If You are facing link dead or no google drive file access then inform us via comment

Latest Updates

Saturday, 23 June 2018

Shooter (2007) BluRay 720p x264 [Dual Audio] [Hindi - Eng] AAC Esub -=!Katyayan!=-


Poster


iMDB
Imdb Picture Title: Shooter
Year: 2007
Runtime: 124 minutes
Votes: 276357
Rating: 7.2/10
Language: English
Country: USA
All Genres: Action, Crime, Drama, Mystery, Thriller
Plot Outline: A marksman living in exile is coaxed back into action after learning of a plot to kill the President. Ultimately double-crossed and framed for the attempt, he goes on the run to find the real killer and the reason he was set up.
Tagline: Yesterday was about honor. Today is about justice.
Director: Antoine Fuqua
Writing By: Jonathan Lemkin,Stephen Hunter,
Produced By: Lorenzo di Bonaventura,Erik Howsam,Mark Johnson,Ric Kidney,
Music: Mark Mancina
Cast:
Mark Wahlberg as Bob Lee Swagger
Michael Peña as Nick Memphis
Danny Glover as Colonel Isaac Johnson
Kate Mara as Sarah Fenn
Elias Koteas as Jack Payne
Rhona Mitra as Alourdes Galindo
Jonathan Walker as Louis Dobbler
Louis Ferreira as Howard Purnell
Tate Donovan as Russ Turner
Rade Serbedzija as Michael Sandor
Trailers:
Shooter


Details
Name:Shooter (2007) BluRay 720p x264 [Dual Audio] [Hindi - Eng] AAC Esub -=!Katyayan!=-
Description:

Shooter (2007) BluRay 720p x264 [Dual Audio] [Hindi - Eng] AAC Esub -=!Katyayan!=-


 


-=====================Source Credit=====================-
:::::::::::::::::::> Audio ----Hammer


Format                                   : Matroska
Format version                           : Version 4 / Version 2
File size                                : 1 011 MiB
Duration                                 : 2 h 5 min
Overall bit rate                         : 1 125 kb/s
Movie name                               : Shooter (2007) BluRay 720p x264 [Dual Audio] [Hindi - Eng] AAC Esub -=!Katyayan!=-
Encoded date                             : UTC 2018-06-13 18:17:11
Writing application                      : mkvmerge v19.0.0 ('Brave Captain') 32-bit
Writing library                          : libebml v1.3.5 + libmatroska v1.4.8
Cover                                    : Yes
Attachments                              : Shooter (2007) Cover

Video
ID                                       : 1
Format                                   : AVC
Format/Info                              : Advanced Video Codec
Format profile                           : High@L4
Format settings                          : CABAC / 8 Ref Frames
Format settings, CABAC                   : Yes
Format settings, RefFrames               : 8 frames
Codec ID                                 : V_MPEG4/ISO/AVC
Duration                                 : 2 h 5 min
Bit rate                                 : 850 kb/s
Width                                    : 1 280 pixels
Height                                   : 528 pixels
Display aspect ratio                     : 2.40:1
Frame rate mode                          : Constant
Frame rate                               : 23.976 (24000/1001) FPS
Color space                              : YUV
Chroma subsampling                       : 4:2:0
Bit depth                                : 8 bits
Scan type                                : Progressive
Bits/(Pixel*Frame)                       : 0.052
Stream size                              : 764 MiB (76%)
Title                                    : Shooter (2007) BluRay 720p x264 [Dual Audio] [Hindi - Eng] AAC Esub -=!Katyayan!=-
Writing library                          : x264 core 112
Language                                 : English
Default                                  : Yes
Forced                                   : No
Color range                              : Limited
Color primaries                          : BT.709
Transfer characteristics                 : BT.709
Matrix coefficients                      : BT.709

Audio #1
ID                                       : 2
Format                                   : AAC
Format/Info                              : Advanced Audio Codec
Format profile                           : LC
Codec ID                                 : A_AAC-2
Duration                                 : 2 h 5 min
Bit rate                                 : 224 kb/s
Channel(s)                               : 2 channels
Channel positions                        : Front: L R
Sampling rate                            : 48.0 kHz
Frame rate                               : 46.875 FPS (1024 SPF)
Compression mode                         : Lossy
Delay relative to video                  : 9 ms
Stream size                              : 201 MiB (20%)
Title                                    : -=!Katyayan!=-
Language                                 : Hindi
Default                                  : Yes
Forced                                   : Yes

Audio #2
ID                                       : 3
Format                                   : AAC
Format/Info                              : Advanced Audio Codec
Format profile                           : HE-AAC / LC
Format settings                          : Explicit
Codec ID                                 : A_AAC-2
Duration                                 : 2 h 5 min
Bit rate                                 : 48.0 kb/s
Channel(s)                               : 2 channels
Channel positions                        : Front: L R
Sampling rate                            : 48.0 kHz / 24.0 kHz
Frame rate                               : 23.438 FPS (1024 SPF)
Compression mode                         : Lossy
Delay relative to video                  : 31 ms
Stream size                              : 43.2 MiB (4%)
Title                                    : -=!Katyayan!=-
Language                                 : English
Default                                  : No
Forced                                   : No

Text
ID                                       : 4
Format                                   : UTF-8
Codec ID                                 : S_TEXT/UTF8
Codec ID/Info                            : UTF-8 Plain Text
Duration                                 : 1 h 58 min
Bit rate                                 : 60 b/s
Count of elements                        : 1446
Stream size                              : 52.5 KiB (0%)
Title                                    : -=!Katyayan!=-
Language                                 : English
Default                                  : Yes
Forced                                   : Yes


                                               
Category:Movies > Hollywood Dub
Lang:Hindi
Total Size:1,011.20 MB



|| Download This Movie Via Single Resumable Links Size: 1011 MB ||

Direct-1 Google Drive | Direct-2 | Direct-3 |

Watch Online Click Here

No comments:

Post a Comment