STAY WITH US

header ads

Thakka Thakka (2015) 720p UNCUT HDRip x264 ESubs [Dual Audio]-[Hindi + Tamil] 1.2GB


Poster
4c6322fdb7ab63a4f0a4351b1d729250.jpg


iMDB
Imdb Picture Title: Thakka Thakka
Year: 2015
Votes: 71
Rating: 5.5/10
Language: Tamil
Country: India
All Genres: Action, Drama, Thriller
Plot Outline: The film is an emotional action thriller which is based on friendship between two boys who work in a wine shop.
Director: Sanjeev
Writing By: Sanjeev,
Music: Jakes Bejoy
Cast:
Abhinaya as Indhu
Aruldoss as Bala
Leema Babu as Thulasi
Parvathi Nirban as
Uma Pathmanabhan as
Sarithiran as
Aravinnd Singh as Karthi
Rahul Venkat as Paraman
Vikranth as Sathya


Details
Name:Thakka Thakka (2015) 720p UNCUT HDRip x264 ESubs [Dual Audio]-[Hindi + Tamil] 1.2GB [MovCr]
Description:
Thakka Thakka (2015) 720p UNCUT HDRip x264 ESubs [Dual Audio]-[Hindi + Tamil] 1.2GB

 


Format                      : Matroska
Format version              : Version 4 / Version 2
File size                   : 1.29 GiB
Duration                    : 2 h 19 min
Overall bit rate            : 1 325 kb/s

Video
ID                          : 1
Format                      : AVC
Format/Info                 : Advanced Video Codec
Format profile              : High@L4.1
Format settings, CABAC      : Yes
Format settings, ReFrames   : 12 frames
Codec ID                    : V_MPEG4/ISO/AVC
Duration                    : 2 h 19 min
Bit rate                    : 1 034 kb/s
Width                       : 1 280 pixels
Height                      : 544 pixels
Display aspect ratio        : 2.35:1
Frame rate mode             : Constant
Frame rate                  : 24.000 FPS
Color space                 : YUV
Chroma subsampling          : 4:2:0
Bit depth                   : 8 bits
Scan type                   : Progressive
Bits/(Pixel*Frame)          : 0.062
Stream size                 : 1.01 GiB (78%)
Writing library             : x264 core 146 r2538 121396c
Language                    : English
Default                     : Yes
Forced                      : No
Color range                 : Limited
Color primaries             : BT.709
Transfer characteristics    : BT.709
Matrix coefficients         : BT.709

Audio #1
ID                          : 2
Format                      : AAC
Format/Info                 : Advanced Audio Codec
Format profile              : LC
Codec ID                    : A_AAC
Duration                    : 2 h 19 min
Bit rate                    : 96.0 kb/s
Channel(s)                  : 2 channels
Channel positions           : Front: L R
Sampling rate               : 48.0 kHz
Frame rate                  : 46.875 FPS (1024 spf)
Compression mode            : Lossy
Delay relative to video     : 9 ms
Stream size                 : 95.8 MiB (7%)
Language                    : Hindi
Default                     : Yes
Forced                      : No

Audio #2
ID                          : 3
Format                      : AAC
Format/Info                 : Advanced Audio Codec
Format profile              : LC
Codec ID                    : A_AAC
Duration                    : 2 h 19 min
Bit rate                    : 192 kb/s
Channel(s)                  : 2 channels
Channel positions           : Front: L R
Sampling rate               : 48.0 kHz
Frame rate                  : 46.875 FPS (1024 spf)
Compression mode            : Lossy
Delay relative to video     : 9 ms
Stream size                 : 191 MiB (14%)
Language                    : Tamil
Default                     : No
Forced                      : No

Text
ID                          : 4
Format                      : UTF-8
Codec ID                    : S_TEXT/UTF8
Codec ID/Info               : UTF-8 Plain Text
Duration                    : 2 h 17 min
Bit rate                    : 50 b/s
Count of elements           : 2046
Stream size                 : 51.2 KiB (0%)
Language                    : English
Default                     : Yes
Forced                      : No

Menu
00:00:00.054                : en:00:00:00.054 / en:00:00:00.054



                               
Category:Movies > South Dub
Lang:Hindi
Total Size:1.29 GB



|| Download This Movie Via Single Resumable Links Size: 1.29 GB ||

Direct-1 Google Drive | Direct-2 | Direct-3 |

Watch Online Click Here

Post a Comment

0 Comments