Crazy World Only 4 You

Sorry For The Inconvenience. If You are facing link dead or no google drive file access then inform us via comment

Latest Updates

Monday, 11 June 2018

The 40 Year Old Virgin (2005) Unrated 1080p BluRay 10bit HEVC [Hindi DD 5.1 + Eng] ESubs ~ Jitu


Poster
a218da8e5a11322f6ea2cb7d5d26e973.jpg


iMDB
Imdb Picture Original Title: The 40 Year Old Virgin
Title: The 40-Year-Old Virgin
Year: 2005
Runtime: 116 minutes
Votes: 345742
Rating: 7.1/10
Language: English, Spanish, Japanese
Country: USA
All Genres: Comedy, Romance
Plot Outline: Andy at the age of 40 still hasn't had sex. He lets his secret slip at a poker game with his buds from work. After the revealing all his friends are on a mission to help get him laid. Along the way Andy meets a nice mom, Trish, and they fall head over heels for each other. Written by Kris Hopson
Tagline: A Comedy about the moments that touch us in ways we've never been touched before.
Director: Judd Apatow
Writing By: Judd Apatow,Steve Carell,
Produced By: Judd Apatow,Steve Carell,Andrew Jay Cohen,Jon Poll,Shauna Robertson,Seth Rogen,Clayton Townsend,
Music: Lyle Workman
Cast:
Steve Carell as Andy
Catherine Keener as Trish
Paul Rudd as David
Romany Malco as Jay
Seth Rogen as Cal
Elizabeth Banks as Beth
Leslie Mann as Nicky
Jane Lynch as Paula
Gerry Bednob as Mooj
Shelley Malil as Haziz
Trailers:
The 40 Year-Old Virgin
The 40 Year-Old Virgin
The 40 Year-Old Virgin


Details
Name:The 40 Year Old Virgin (2005) Unrated 1080p BluRay 10bit HEVC [Hindi DD 5.1 + Eng] ESubs ~ Jitu
Description:
The 40 Year Old Virgin (2005) Unrated 1080p BluRay 10bit HEVC [Hindi DD 5.1 + Eng] ESubs ~ Jitu


 
 Format                                   : Matroska
Format version                           : Version 4 / Version 2
File size                                : 2.49 GiB
Duration                                 : 2 h 12 min
Overall bit rate                         : 2 693 kb/s
Movie name                               : The 40 Year Old Virgin (2005) Unrated Bluray 1080p 10bit x265 HEVC [Org DD 5.1 Hindi + English] ESubs ~ Jitu

Video
ID                                       : 1
Format                                   : HEVC
Format/Info                              : High Efficiency Video Coding
Format profile                           : Main 10@L4@Main
Codec ID                                 : V_MPEGH/ISO/HEVC
Duration                                 : 2 h 12 min
Bit rate                                 : 2 097 kb/s
Width                                    : 1 920 pixels
Height                                   : 1 040 pixels
Display aspect ratio                     : 1.85:1
Frame rate mode                          : Constant
Frame rate                               : 23.976 (24000/1001) FPS
Color space                              : YUV
Chroma subsampling                       : 4:2:0
Bit depth                                : 10 bits
Bits/(Pixel*Frame)                       : 0.044
Stream size                              : 1.94 GiB (78%)
Writing library                          : x265 1.9+7-dc62b47dd0d9:[Windows][MSVC 1900][64 bit] 10bit
Language                                 : English
Default                                  : Yes
Forced                                   : No

Audio #1
ID                                       : 2
Format                                   : AC-3
Format/Info                              : Audio Coding 3
Codec ID                                 : A_AC3
Duration                                 : 2 h 12 min
Bit rate mode                            : Constant
Bit rate                                 : 384 kb/s
Channel(s)                               : 6 channels
Channel positions                        : Front: L C R, Side: L R, LFE
Sampling rate                            : 48.0 kHz
Frame rate                               : 31.250 FPS (1536 SPF)
Bit depth                                : 16 bits
Compression mode                         : Lossy
Delay relative to video                  : 1 s 0 ms
Stream size                              : 364 MiB (14%)
Title                                    : Org DD 5.1 384Kbps
Language                                 : Hindi
Service kind                             : Complete Main
Default                                  : Yes
Forced                                   : Yes

Audio #2
ID                                       : 3
Format                                   : AAC
Format/Info                              : Advanced Audio Codec
Format profile                           : HE-AAC / LC
Format settings                          : Explicit
Codec ID                                 : A_AAC-2
Duration                                 : 2 h 12 min
Bit rate                                 : 192 kb/s
Channel(s)                               : 6 channels
Channel positions                        : Front: L C R, Side: L R, LFE
Sampling rate                            : 48.0 kHz / 24.0 kHz
Frame rate                               : 23.438 FPS (1024 SPF)
Compression mode                         : Lossy
Delay relative to video                  : 34 ms
Stream size                              : 182 MiB (7%)
Language                                 : English
Default                                  : No
Forced                                   : No

Text
ID                                       : 4
Format                                   : PGS
Muxing mode                              : zlib
Codec ID                                 : S_HDMV/PGS
Codec ID/Info                            : Picture based subtitle format used on BDs/HD-DVDs
Duration                                 : 2 h 10 min
Bit rate                                 : 62.5 kb/s
Count of elements                        : 5451
Stream size                              : 58.1 MiB (2%)
Language                                 : English
Default                                  : Yes
Forced                                   : Yes

Menu
00:00:00.000                             : en:Chapter 1
00:08:43.147                             : en:Chapter 2
00:14:32.955                             : en:Chapter 3
00:22:52.704                             : en:Chapter 4
00:32:07.842                             : en:Chapter 5
00:38:17.128                             : en:Chapter 6
00:43:57.176                             : en:Chapter 7
00:48:40.584                             : en:Chapter 8
00:54:44.447                             : en:Chapter 9
01:05:00.062                             : en:Chapter 10
01:10:44.198                             : en:Chapter 11
01:17:18.592                             : en:Chapter 12
01:21:27.173                             : en:Chapter 13
01:27:54.644                             : en:Chapter 14
01:35:01.862                             : en:Chapter 15
01:41:56.735                             : en:Chapter 16
01:48:05.687                             : en:Chapter 17
01:58:59.173                             : en:Chapter 18
02:03:46.877                             : en:Chapter 19
02:08:55.102                             : en:Chapter 20








Category:Movies > Hollywood Dub
Lang:Hindi
Total Size:2.49 GB



|| Download This Movie Via Single Resumable Links Size: 2.49 GB ||

Direct-1 Google Drive | Direct-2 | Direct-3 |

Watch Online Click Here

No comments:

Post a Comment