Crazy World Only 4 You

Sorry For The Inconvenience. If You are facing link dead or no google drive file access then inform us via comment

Latest Updates

Saturday, 23 June 2018

The Tuxedo (2002) 720p WEB-DL [Dual Audio] [Hindi DD 5.1 - Eng] AAC Esub -=!Katyayan!=-


Poster


iMDB
Imdb Picture Title: The Tuxedo
Year: 2002
Runtime: 98 minutes
Votes: 69644
Rating: 5.3/10
Language: English, Cantonese
Country: USA
All Genres: Action, Comedy, Sci-Fi
Plot Outline: Jimmy Tong is just a lowly chauffeur for millionaire Clark Devlin, until Devlin has an accident that puts him in the hospital. Tong is sent back to fetch some things for Devlin and unknowingly tries on Devlin's tuxedo and finds that it gives extraordinary powers to anyone that dons the suit. This discovery thrusts Tong into world of international intrigue and espionage and pairs him with an inexperienced partner. Written by Tim Salazar
Tagline: Class. Action. Suit.
Director: Kevin Donovan
Writing By: Phil Hay,Matt Manfredi,Michael J. Wilson,Michael J. Wilson,Michael Leeson,
Produced By: William S. Beasley,Willie Chan,David Coatsworth,Laurie MacDonald,Brandi McDougall Neuwirth,Walter F. Parkes,Adam Schroeder,Solon So,John H. Williams,
Music: Christophe Beck John Debney
Cast:
Jackie Chan as Jimmy Tong
Jennifer Love Hewitt as Del Blaine
Jason Isaacs as Clark Devlin
Debi Mazar as Steena
Ritchie Coster as Dietrich Banning
Peter Stormare as Dr. Simms
Mia Cottet as Cheryl
Romany Malco as Mitch
Daniel Kash as Rogers
Jody Racicot as Kells


Details
Name:The Tuxedo (2002) 720p WEB-DL [Dual Audio] [Hindi DD 5.1 - Eng] AAC Esub -=!Katyayan!=-
Description:
The Tuxedo (2002) 720p WEB-DL [Dual Audio] [Hindi DD 5.1 - Eng] AAC Esub -=!Katyayan!=-

 


-=====================Source Credit=====================-
:::::::::::::::::::> Video ---- 1080p @ FGT
:::::::::::::::::::> Audio ---- Hammer


Format                                   : Matroska
Format version                           : Version 4 / Version 2
File size                                : 963 MiB
Duration                                 : 1 h 39 min
Overall bit rate                         : 1 358 kb/s
Movie name                               : The Tuxedo (2002) 720p WEB-DL [Dual Audio] [Hindi DD 5.1 - Eng] AAC Esub -=!Katyayan!=-
Encoded date                             : UTC 2018-06-16 07:36:36
Writing application                      : mkvmerge v19.0.0 ('Brave Captain') 32-bit
Writing library                          : libebml v1.3.5 + libmatroska v1.4.8
Cover                                    : Yes
Attachments                              : The Tuxedo (2002) Cover

Video
ID                                       : 1
Format                                   : AVC
Format/Info                              : Advanced Video Codec
Format profile                           : High@L4.1
Format settings                          : CABAC / 9 Ref Frames
Format settings, CABAC                   : Yes
Format settings, RefFrames               : 9 frames
Codec ID                                 : V_MPEG4/ISO/AVC
Duration                                 : 1 h 38 min
Bit rate                                 : 1 105 kb/s
Width                                    : 1 280 pixels
Height                                   : 720 pixels
Display aspect ratio                     : 16:9
Frame rate mode                          : Constant
Frame rate                               : 23.976 (24000/1001) FPS
Color space                              : YUV
Chroma subsampling                       : 4:2:0
Bit depth                                : 8 bits
Scan type                                : Progressive
Bits/(Pixel*Frame)                       : 0.050
Stream size                              : 780 MiB (81%)
Title                                    : The Tuxedo (2002) 720p WEB-DL [Dual Audio] [Hindi DD 5.1 - Eng] AAC Esub -=!Katyayan!=-
Writing library                          : x264 core 142 r2431 ac76440
Language                                 : Chinese
Default                                  : Yes
Forced                                   : No

Audio #1
ID                                       : 2
Format                                   : AAC
Format/Info                              : Advanced Audio Codec
Format profile                           : LC
Codec ID                                 : A_AAC-2
Duration                                 : 1 h 39 min
Bit rate                                 : 192 kb/s
Channel(s)                               : 6 channels
Channel positions                        : Front: L C R, Side: L R, LFE
Sampling rate                            : 48.0 kHz
Frame rate                               : 46.875 FPS (1024 SPF)
Compression mode                         : Lossy
Stream size                              : 136 MiB (14%)
Title                                    : -=!Katyayan!=-
Language                                 : Hindi
Default                                  : Yes
Forced                                   : Yes

Audio #2
ID                                       : 3
Format                                   : AAC
Format/Info                              : Advanced Audio Codec
Format profile                           : HE-AAC / LC
Format settings                          : Explicit
Codec ID                                 : A_AAC-2
Duration                                 : 1 h 38 min
Bit rate                                 : 64.0 kb/s
Channel(s)                               : 2 channels
Channel positions                        : Front: L R
Sampling rate                            : 48.0 kHz / 24.0 kHz
Frame rate                               : 23.438 FPS (1024 SPF)
Compression mode                         : Lossy
Delay relative to video                  : 31 ms
Stream size                              : 45.2 MiB (5%)
Title                                    : -=!Katyayan!=-
Language                                 : English
Default                                  : No
Forced                                   : No

Text
ID                                       : 4
Format                                   : UTF-8
Codec ID                                 : S_TEXT/UTF8
Codec ID/Info                            : UTF-8 Plain Text
Duration                                 : 1 h 36 min
Bit rate                                 : 87 b/s
Count of elements                        : 1258
Stream size                              : 62.0 KiB (0%)
Title                                    : -=!Katyayan!=-
Language                                 : English
Default                                  : Yes
Forced                                   : Yes


 

Category:Movies > Hollywood Dub
Lang:Hindi
Total Size:963.67 MB



|| Download This Movie Via Single Resumable Links Size: 963 MB ||

Direct-1 Google Drive | Direct-2 | Direct-3 |

Watch Online Click Here

No comments:

Post a Comment