Training Day (2001) BluRay 720p x264 [Dual Audio] [Hindi - Eng] AAC Esub -=!Katyayan!=-


Poster


iMDB
Imdb Picture Title: Training Day
Year: 2001
Runtime: 122 minutes
Votes: 339934
Rating: 7.7/10
Language: English, Russian, Spanish, Korean
Country: USA, Australia
All Genres: Crime, Drama, Thriller
Plot Outline: In Los Angeles, a city where streets are overrun by drug dealers, those who have sworn to uphold the law are breaking them to clean up the streets. Denzel Washington plays L.A.P.D. detective Alonzo Harris, a veteran narcotics officer whose methods of enforcing the law are questionable, if not corrupt. 'Training Day' follows Harris as he trains rookie Jake Hoyt over a 24-hour period. Ethical dilemmas arise for Hoyt as well as the audience as questions present themselves as to whether or not Harris' methodology for ridding the streets of South Central Los Angeles of drugs is right or wrong. Written by Anna <dimenxia@yahoo.com>
Tagline: The only thing more dangerous than the line being crossed, is the cop who will cross it.
Director: Antoine Fuqua
Writing By: David Ayer,
Produced By: David Ayer,Bruce Berman,Davis Guggenheim,Robert F. Newmyer,Susan E. Novick,Jeffrey Silver,Scott Strauss,David Wisnievitz,
Music: Mark Mancina
Cast:
Denzel Washington as Alonzo
Ethan Hawke as Jake
Scott Glenn as Roger
Tom Berenger as Stan Gursky
Harris Yulin as Doug Rosselli
Raymond J. Barry as Lou Jacobs
Cliff Curtis as Smiley
Dr. Dre as Paul
Snoop Dogg as Blue
Macy Gray as Sandman's Wife
Trailers:
Training Day
Training Day


Details
Name:Training Day (2001) BluRay 720p x264 [Dual Audio] [Hindi - Eng] AAC Esub -=!Katyayan!=-
Description:
Training Day (2001) BluRay 720p x264 [Dual Audio] [Hindi - Eng] AAC Esub -=!Katyayan!=-

 


Format                                   : Matroska
Format version                           : Version 4 / Version 2
File size                                : 937 MiB
Duration                                 : 2 h 2 min
Overall bit rate mode                    : Variable
Overall bit rate                         : 1 074 kb/s
Movie name                               : Training Day (2001) BluRay 720p x264 [Dual Audio] [Hindi - Eng] AAC Esub -=!Katyayan!=-
Encoded date                             : UTC 2018-06-14 12:08:08
Writing application                      : mkvmerge v19.0.0 ('Brave Captain') 32-bit
Writing library                          : libebml v1.3.5 + libmatroska v1.4.8
Cover                                    : Yes
Attachments                              : Training Day (2001) Cover

Video
ID                                       : 1
Format                                   : AVC
Format/Info                              : Advanced Video Codec
Format profile                           : High@L4
Format settings                          : CABAC / 8 Ref Frames
Format settings, CABAC                   : Yes
Format settings, RefFrames               : 8 frames
Codec ID                                 : V_MPEG4/ISO/AVC
Duration                                 : 2 h 2 min
Bit rate mode                            : Variable
Bit rate                                 : 817 kb/s
Maximum bit rate                         : 25.0 Mb/s
Width                                    : 1 280 pixels
Height                                   : 544 pixels
Display aspect ratio                     : 2.35:1
Frame rate mode                          : Constant
Frame rate                               : 23.976 (24000/1001) FPS
Color space                              : YUV
Chroma subsampling                       : 4:2:0
Bit depth                                : 8 bits
Scan type                                : Progressive
Bits/(Pixel*Frame)                       : 0.049
Stream size                              : 712 MiB (76%)
Title                                    : Training Day (2001) BluRay 720p x264 [Dual Audio] [Hindi - Eng] AAC Esub -=!Katyayan!=-
Writing library                          : x264 core 120 r2120 0c7dab9
Language                                 : English
Default                                  : Yes
Forced                                   : No

Audio #1
ID                                       : 2
Format                                   : AAC
Format/Info                              : Advanced Audio Codec
Format profile                           : LC
Codec ID                                 : A_AAC-2
Duration                                 : 2 h 1 min
Bit rate                                 : 160 kb/s
Channel(s)                               : 2 channels
Channel positions                        : Front: L R
Sampling rate                            : 48.0 kHz
Frame rate                               : 46.875 FPS (1024 SPF)
Compression mode                         : Lossy
Delay relative to video                  : 15 s 145 ms
Stream size                              : 139 MiB (15%)
Title                                    : -=!Katyayan!=-
Language                                 : Hindi
Default                                  : Yes
Forced                                   : Yes

Audio #2
ID                                       : 3
Format                                   : AAC
Format/Info                              : Advanced Audio Codec
Format profile                           : HE-AAC / LC
Format settings                          : Explicit
Codec ID                                 : A_AAC-2
Duration                                 : 2 h 2 min
Bit rate                                 : 96.0 kb/s
Channel(s)                               : 2 channels
Channel positions                        : Front: L R
Sampling rate                            : 48.0 kHz / 24.0 kHz
Frame rate                               : 23.438 FPS (1024 SPF)
Compression mode                         : Lossy
Stream size                              : 83.8 MiB (9%)
Title                                    : -=!Katyayan!=-
Language                                 : English
Default                                  : No
Forced                                   : No

Text
ID                                       : 4
Format                                   : UTF-8
Codec ID                                 : S_TEXT/UTF8
Codec ID/Info                            : UTF-8 Plain Text
Duration                                 : 2 h 0 min
Bit rate                                 : 70 b/s
Count of elements                        : 2266
Stream size                              : 62.4 KiB (0%)
Title                                    : -=!Katyayan!=-
Language                                 : English
Default                                  : Yes
Forced                                   : Yes


 
Category:Movies > Hollywood Dub
Lang:Hindi
Total Size:937.65 MB



|| Download This Movie Via Single Resumable Links Size: 937 MB ||

Direct-1 Google Drive | Direct-2 | Direct-3 |

Watch Online Click Here

Post a Comment

0 Comments