Crazy World Only 4 You

Sorry For The Inconvenience. If You are facing link dead or no google drive file access then inform us via comment

Latest Updates

Tuesday, 5 June 2018

Vaastav (1999) Hindi 1080p - UntoucheD WEB HD - AVC - AAC - M-Subs - DTOne Exclusive


Poster


iMDB
Imdb Picture Title: Vaastav: The Reality
Year: 1999
Runtime: 145 minutes
Votes: 9940
Rating: 8.0/10
Language: Hindi
Country: India
All Genres: Action, Crime, Drama, Thriller
Plot Outline: SPOILER: Raghunath Namdev Shivalkar (Sanjay Dutt) and his best friend Dedh Footiya (Sanjay Narvekar) struggle to find work in Mumbai. They decide to run a pav bhaji stall.But fate steps in when Raghu accidentally kills a customer who turns out to be the brother of a notorious gangster, Fracture Pandya and end up in the Mumbai underworld. Vitthal Kaanya (Ashish Vidyarthi), a rival gang lord, offers Raghunath and Dedh Footiya protection and later hires them both as hitmen. Raghunath becomes a respected hit man, with Dedh Footiya as his accomplice. With Raghunath in his gang Vitthal Kaanya hits a peak in the Mumbai underworld. He is protected by a politician who uses Raghunath for his needs. While BabbanRao (Home Minister) relies on Raghunath, there are some others who despise Raghunath, and are just waiting in the sidelines to see when Raghunath makes an error. Raghunath does so, and hence becomes an embarrassment for BabbanRao. Soon Raghunath is on the run, both from the police, and ... Written by gavin@sunny_deol2009@yahoo.com
Tagline: The reality
Director: Mahesh Manjrekar
Writing By: Imtiaz Hussain,Mahesh Manjrekar,Mahesh Manjrekar,
Produced By: Deepak,Sagoon Wagh,
Music: Sandeep Chowta Jatin Pandit Lalit Pandit Rahul Ranade
Cast:
Sanjay Dutt as Raghunath Namdev Shivalkar
Namrata Shirodkar as Sonia
Mohnish Bahl as Vijay (Raghu's brother)
Ekta Sohini as Puja
Reema Lagoo as Shanta (Raghu's mother)
Shivaji Satam as Namdev (Raghu's father)
Kashmira Shah as Dancer (Song 'Jawani Se')
Deepak Tijori as Sub-inspector Kishore Kadam
Paresh Rawal as Suleiman Bhai
Mohan Joshi as Babbanrao Kadam (Home Minister)

Details
Name:Vaastav (1999) Hindi 1080p - UntoucheD WEB HD - AVC - AAC - M-Subs - DTOne Exclusive
Description:
Vaastav
(1999)
1080p - UntoucheD WEB HD - AVC - AAC - M-Subs - DTOne Exclusive




=====================================================
Movie Info

Video
ID                                      : 1
Format                                  : AVC
Format/Info                              : Advanced Video Codec
Format profile                          : Baseline@L4
Format settings                          : 1 Ref Frames
Format settings, CABAC                  : No
Format settings, RefFrames              : 1 frame
Codec ID                                : avc1
Codec ID/Info                            : Advanced Video Coding
Duration                                : 2 h 26 min
Bit rate                                : 3 988 kb/s
Width                                    : 1 920 pixels
Height                                  : 808 pixels
Display aspect ratio                    : 2.40:1
Frame rate mode                          : Constant
Frame rate                              : 25.000 FPS
Color space                              : YUV
Chroma subsampling                      : 4:2:0
Bit depth                                : 8 bits
Scan type                                : Progressive
Bits/(Pixel*Frame)                      : 0.103
Stream size                              : 4.07 GiB (97%)
Writing library                          : Zencoder Video Encoding System
Color range                              : Limited
Color primaries                          : BT.709
Transfer characteristics                : BT.709
Matrix coefficients                      : BT.709

Audio
ID                                      : 2
Format                                  : AAC
Format/Info                              : Advanced Audio Codec
Format profile                          : LC
Codec ID                                : mp4a-40-2
Duration                                : 2 h 26 min
Bit rate mode                            : Constant
Bit rate                                : 128 kb/s
Channel(s)                              : 2 channels
Channel positions                        : Front: L R
Sampling rate                            : 44.1 kHz
Frame rate                              : 43.066 FPS (1024 SPF)
Compression mode                        : Lossy
Stream size                              : 134 MiB (3%)
Default                                  : Yes
Alternate group                          : 1
=====================================================

SCREENSHOTS
===========
Category:Movies > Bollywood
Lang:Hindi
Total Size:4.21 GB



|| Download This Movie Via Single Resumable Links Size: 4.21 GB ||

Direct-1 Google Drive | Direct-2 | Direct-3 |

Watch Online Click Here

No comments:

Post a Comment