101 Dalmatians (1996) 720p 10bit WEBRip x265 Dual Audio [Hindi DD 2.0 + English DD 5.1] ESubs ~ Jitu


Poster
e0967c501deea50e1a95bc00c0917d9a.png


iMDB
Imdb Picture Title: 101 Dalmatians
Year: 1996
Runtime: 103 minutes
Votes: 86722
Rating: 5.7/10
Language: English, Spanish
Country: USA
All Genres: Adventure, Comedy, Crime, Family
Plot Outline: After a wild chase in the bustling streets of London, the struggling computer game author, Roger, and his male Dalmatian pet, Pongo--by a welcome twist of fate--are dragged into St. James Park and meet with the charming fashion designer, Anita, and her female Dalmatian companion, Perdita. Soon, one thing will lead to another, and before they know it, Roger and Anita will get married and the adorable Perdita, pregnant. However, their short-lived joy is disrupted when Anita's glamorous but horrible boss, Cruella DeVil, dognaps the innocent puppies with the intention of making a luxurious coat with the dogs' fabulously spotted fur. Eventually, along with Perdita's 15 pups, Cruella will manage to bring the total to the staggering number of 99 Dalmatians; nevertheless, are the cute little puppies as helpless as they look? Written by Nick Riganas
Tagline: This Thanksgiving, the world is going to the dogs.
Director: Stephen Herek
Writing By: Dodie Smith,John Hughes,
Produced By: Edward S. Feldman,John Hughes,Ricardo Mestres,David Molina,Rebekah Rudd,Sue Shakespeare,Terry Shakespeare,Bill Ryan,
Music: Michael Kamen
Cast:
Glenn Close as Cruella DeVil
Jeff Daniels as Roger
Joely Richardson as Anita
Joan Plowright as Nanny
Hugh Laurie as Jasper
Mark Williams as Horace
John Shrapnel as Skinner
Tim McInnerny as Alonzo
Hugh Fraser as Frederick
Zohren Weiss as Herbert



Details
Name:101 Dalmatians (1996) 720p 10bit WEBRip x265 Dual Audio [Hindi DD 2.0 + English  DD 5.1] ESubs ~ Jitu
Description:
101 Dalmatians (1996) 720p 10bit WEBRip x265 Dual Audio [Hindi DD 2.0 + English  DD 5.1] ESubs ~ Jitu 



Org Untouched DD+ 2.0 128Kbps Hindi Audio By Hammer {Thanks} 

 

 Format                                   : Matroska
Format version                           : Version 4 / Version 2
File size                                : 1.33 GiB
Duration                                 : 1 h 43 min
Overall bit rate                         : 1 853 kb/s
Movie name                               : 101 Dalmatians (1996) 720p 10bit WEBRip x264 HEVC [Org DD+ 2.0 Hindi + DD 5.1 Eng] ESubs ~ Jitu
Encoded date                             : UTC 2018-07-20 08:30:40 / UTC 2018-07-19T21:42:26Z
Writing application                      : mkvmerge v25.0.0 ('Prog Noir') 64-bit
Writing library                          : libebml v1.3.6 + libmatroska v1.4.9 / Lavf57.7.2

Video
ID                                       : 1
Format                                   : HEVC
Format/Info                              : High Efficiency Video Coding
Format profile                           : Main 10@L3.1@Main
Codec ID                                 : V_MPEGH/ISO/HEVC
Duration                                 : 1 h 43 min
Bit rate                                 : 1 464 kb/s
Width                                    : 1 280 pixels
Height                                   : 542 pixels
Display aspect ratio                     : 2.35:1
Frame rate mode                          : Constant
Frame rate                               : 23.976 (24000/1001) FPS
Color space                              : YUV
Chroma subsampling                       : 4:2:0
Bit depth                                : 10 bits
Bits/(Pixel*Frame)                       : 0.088
Stream size                              : 1.05 GiB (79%)
Default                                  : Yes
Forced                                   : No
Color range                              : Limited
Color primaries                          : BT.709
Transfer characteristics                 : BT.709
Matrix coefficients                      : BT.709
FromStats_BitRate                        : 1500672
FromStats_Duration                       : 01:42:54.419000000
FromStats_FrameCount                     : 148038
FromStats_StreamSize                     : 1158222322

Audio #1
ID                                       : 2
Format                                   : E-AC-3
Format/Info                              : Enhanced Audio Coding 3
Codec ID                                 : A_EAC3
Duration                                 : 1 h 43 min
Bit rate mode                            : Constant
Bit rate                                 : 128 kb/s
Channel(s)                               : 2 channels
Channel positions                        : Front: L R
Sampling rate                            : 48.0 kHz
Frame rate                               : 187.500 FPS (256 SPF)
Compression mode                         : Lossy
Delay relative to video                  : 829 ms
Stream size                              : 94.3 MiB (7%)
Title                                    : Org DD+ 2.0 128Kbps ~ Jitu
Language                                 : Hindi
Service kind                             : Complete Main
Default                                  : Yes
Forced                                   : Yes
FromStats_BitRate                        : 128000
FromStats_Duration                       : 01:43:00.256000000
FromStats_FrameCount                     : 193133
FromStats_StreamSize                     : 98884096

Audio #2
ID                                       : 3
Format                                   : AC-3
Format/Info                              : Audio Coding 3
Codec ID                                 : A_AC3
Duration                                 : 1 h 43 min
Bit rate mode                            : Constant
Bit rate                                 : 224 kb/s
Channel(s)                               : 6 channels
Channel positions                        : Front: L C R, Side: L R, LFE
Sampling rate                            : 48.0 kHz
Frame rate                               : 31.250 FPS (1536 SPF)
Bit depth                                : 16 bits
Compression mode                         : Lossy
Delay relative to video                  : -21 ms
Stream size                              : 165 MiB (12%)
Language                                 : English
Service kind                             : Complete Main
Default                                  : No
Forced                                   : No
FromStats_BitRate                        : 224000
FromStats_Duration                       : 01:42:54.432000000
FromStats_FrameCount                     : 192951
FromStats_StreamSize                     : 172884096

Menu
00:00:00.000                             : :Program Start
00:00:29.071                             : :Opening Credits
00:04:50.081                             : :The Meeting
00:06:01.069                             : :Madame De Vil
00:11:26.060                             : :Love At First Sight
00:24:12.076                             : :Ready For Skinner
00:29:15.003                             : :Babies On The Way
00:33:36.056                             : :The Blessed Event
00:45:06.078                             : :Puppy Theft
00:52:50.042                             : :Sending A Message
00:56:04.027                             : :To The Rescue
00:58:12.072                             : :What Noise?
01:04:41.044                             : :Sabotage
01:05:26.005                             : :Who's That Knocking?
01:08:52.003                             : :Escape
01:13:27.069                             : :Stalling Cruella
01:19:30.057                             : :Reunion
01:25:09.062                             : :Thinking Ahead
01:27:11.059                             : :Give Me The Hat!
01:32:44.059                             : :One Smelly Ride
01:37:40.063                             : :Closing Credits 




0KkYQ.th.png 0Kgzq.th.png 0KKSn.th.png 0K8Qh.th.png 0KoNW.th.png 0Kfhr.th.png 0Khlj.th.png 0KTJo.th.png
Category:Movies > Hollywood Dub
Lang:Hindi
Total Size:1.33 GB



|| Download This Movie Via Single Resumable Links Size: 1.33 GB ||

Direct-1 Google Drive | Direct-2 | Direct-3 |

Watch Online Click Here

Post a Comment

0 Comments