13 Going On 30 (2004) BluRay 720p x264 Dual Audio [Hindi + Eng] Esubs Exclusive By Maher


Poster
85ad9d4dfa99e91bc313709f85fc9c93.jpg


iMDB
Imdb Picture Title: 13 Going on 30
Year: 2004
Runtime: 98 minutes
Votes: 139361
Rating: 6.1/10
Language: English, Portuguese
Country: USA
All Genres: Comedy, Fantasy, Romance
Plot Outline: After total humiliation at her thirteenth birthday party, Jenna Rink wants to just hide until she's thirty. Thanks to some wishing dust, Jenna's prayer has been answered. With a knockout body, a dream apartment, a fabulous wardrobe, an athlete boyfriend, a dream job, and superstar friends, this can't be a better life. Unfortunately, Jenna realizes that this is not what she wanted. The only one that she needs is her childhood best friend, Matt, a boy that she thought destroyed her party. But when she finds him, he's a grown up, and not the same person that she knew. Written by popdivaprincess3000
Tagline: A comedy for the kid in all of us.
Director: Gary Winick
Writing By: Josh Goldsmith,Cathy Yuspa,
Produced By: Susan Arnold,Allegra Clegg,Todd Garner,Dan Kolsrud,Gina Matthews,Donna Roth,Desi van Til,
Music: Theodore Shapiro
Cast:
Jennifer Garner as Jenna Rink
Mark Ruffalo as Matt Flamhaff
Judy Greer as Lucy Wyman
Andy Serkis as Richard Kneeland
Kathy Baker as Bev Rink
Phil Reeves as Wayne Rink
Sam Ball as Alex Carlson
Marcia DeBonis as Arlene
Christa B. Allen as Young Jenna
Sean Marquette as Young Matt
Trailers:
13 Going on 30
13 Going on 30
13 Going on 30



Details
Name:13 Going On 30 (2004) BluRay 720p x264 Dual Audio [Hindi + Eng] Esubs Exclusive By Maher
Description:
13 Going On 30 (2004) BluRay 720p x264 Dual Audio [Hindi + Eng] Esubs Exclusive By Maher 

Format                                   : Matroska
Format version                           : Version 4 / Version 2
File size                                : 837 MiB
Duration                                 : 1 h 37 min
Overall bit rate                         : 1 197 kb/s

Video
ID                                       : 1
Format                                   : AVC
Format/Info                              : Advanced Video Codec
Format profile                           : High@L4.1
Format settings                          : CABAC / 4 Ref Frames
Format settings, CABAC                   : Yes
Format settings, RefFrames               : 4 frames
Codec ID                                 : V_MPEG4/ISO/AVC
Duration                                 : 1 h 37 min
Bit rate                                 : 900 kb/s
Width                                    : 1 280 pixels
Height                                   : 694 pixels
Display aspect ratio                     : 1.85:1
Frame rate mode                          : Constant
Frame rate                               : 23.976 FPS
Color space                              : YUV
Chroma subsampling                       : 4:2:0
Bit depth                                : 8 bits
Scan type                                : Progressive
Bits/(Pixel*Frame)                       : 0.042
Stream size                              : 629 MiB (75%)
Writing library                          : x264 core 148
Default                                  : Yes
Forced                                   : No

Audio #1
ID                                       : 2
Format                                   : AAC
Format/Info                              : Advanced Audio Codec
Format profile                           : LC
Codec ID                                 : A_AAC-2
Duration                                 : 1 h 37 min
Bit rate                                 : 105 kb/s
Channel(s)                               : 2 channels
Channel positions                        : Front: L R
Sampling rate                            : 48.0 kHz
Frame rate                               : 46.875 FPS (1024 SPF)
Compression mode                         : Lossy
Delay relative to video                  : -43 ms
Stream size                              : 73.4 MiB (9%)
Default                                  : No
Forced                                   : No

Audio #2
ID                                       : 3
Format                                   : AAC
Format/Info                              : Advanced Audio Codec
Format profile                           : LC
Codec ID                                 : A_AAC-2
Duration                                 : 1 h 37 min
Bit rate                                 : 192 kb/s
Channel(s)                               : 2 channels
Channel positions                        : Front: L R
Sampling rate                            : 48.0 kHz
Frame rate                               : 46.875 FPS (1024 SPF)
Compression mode                         : Lossy
Delay relative to video                  : -43 ms
Stream size                              : 132 MiB (16%)
Title                                    : BY-MAHER
Language                                 : Hindi
Default                                  : Yes
Forced                                   : Yes

Text
ID                                       : 4
Format                                   : UTF-8
Codec ID                                 : S_TEXT/UTF8
Codec ID/Info                            : UTF-8 Plain Text
Duration                                 : 1 h 32 min
Bit rate                                 : 55 b/s
Count of elements                        : 1001
Stream size                              : 37.3 KiB (0%)
Default                                  : Yes
Forced                                   : No





Category:Movies > Hollywood Dub
Lang:Hindi
Total Size:849.60 MB



|| Download This Movie Via Single Resumable Links Size: 837 MB ||

Direct-1 Google Drive | Direct-2 | Direct-3 |

Watch Online Click Here

Post a Comment

0 Comments