1920: Evil Returns (2012) Hindi 720p BluRay mHD x264 AC3 DD 5.1 -NhaNc3


Poster
549e747c5e8445a549223fcc0dc7eb33.jpg


iMDB
Imdb Picture Title: 1920: Evil Returns
Year: 2012
Runtime: 124 minutes
Votes: 1302
Rating: 4.9/10
Language: Hindi
Country: India
All Genres: Drama, Horror, Romance
Plot Outline: This story revolves around a famous poet who meets a woman who is in trouble. In order to treat her, he takes her to Shimla in a big hospital, but soon that woman gets possessed by devil ...
Tagline: Possession is back
Director: Bhushan Patel
Writing By: Vikram Bhatt,
Produced By: Vikram Bhatt,Dharmendra Rawal,
Music: Amar Mohile
Plot:
This story revolves around a famous poet who meets a woman who is in trouble. In order to treat her, he takes her to Shimla in a big hospital, but soon that woman gets possessed by devil and goes out of control. Now the question remains that what is the relation that poet shares with her which compelled him to go to any extent to save her, why she was possessed by devil and who is the devil.
- Written by Lateefwagay@hotmail.com
Cast:
Vicky Ahuja as Bankimal
Tia Bajpai as Smriti / Sangeeta
Sharad Kelkar as Amar
Vidya Malvade as Karuna Verma
Naresh Sharma as Driver of Horse Carriag
Aftab Shivdasani as Jaidev Verma



Details
Name:1920- The Evil Returns (2012) Hindi 720p WEB-DL x264 AAC { TaRa }
Description:
 1920: Evil Returns (2012) Hindi 720p BluRay mHD x264 AC3 DD 5.1 -NhaNc3

549e747c5e8445a549223fcc0dc7eb33.jpg

Format                                   : Matroska
Format version                           : Version 2
File size                                : 2.44 GiB
Duration                                 : 2 h 4 min
Overall bit rate                         : 2 814 kb/s
Encoded date                             : UTC 2013-01-28 03:31:14
Writing application                      : mkvmerge v4.8.0 ('I Got The...') built on May 24 2011 03:12:58
Writing library                          : libebml v1.2.0 + libmatroska v1.1.0

Video
ID                                       : 1
Format                                   : AVC
Format/Info                              : Advanced Video Codec
Format profile                           : High@L4.1
Format settings                          : CABAC / 8 Ref Frames
Format settings, CABAC                   : Yes
Format settings, ReFrames                : 8 frames
Codec ID                                 : V_MPEG4/ISO/AVC
Duration                                 : 2 h 4 min
Bit rate                                 : 2 429 kb/s
Width                                    : 1 280 pixels
Height                                   : 544 pixels
Display aspect ratio                     : 2.35:1
Frame rate mode                          : Constant
Frame rate                               : 24.000 FPS
Color space                              : YUV
Chroma subsampling                       : 4:2:0
Bit depth                                : 8 bits
Scan type                                : Progressive
Bits/(Pixel*Frame)                       : 0.145
Stream size                              : 2.06 GiB (84%)
Writing library                          : x264 core 129 r2230 1cffe9f
Language                                 : English
Default                                  : Yes
Forced                                   : No
Color range                              : Limited
Color primaries                          : BT.709
Transfer characteristics                 : BT.709
Matrix coefficients                      : BT.709

Audio
ID                                       : 2
Format                                   : AC-3
Format/Info                              : Audio Coding 3
Codec ID                                 : A_AC3
Duration                                 : 2 h 4 min
Bit rate mode                            : Constant
Bit rate                                 : 384 kb/s
Channel(s)                               : 6 channels
Channel positions                        : Front: L C R, Side: L R, LFE
Sampling rate                            : 48.0 kHz
Frame rate                               : 31.250 FPS (1536 SPF)
Bit depth                                : 16 bits
Compression mode                         : Lossy
Stream size                              : 341 MiB (14%)
Language                                 : English
Service kind                             : Complete Main
Default                                  : Yes
Forced                                   : Yes

Menu
00:00:00.000                             : en:00:00:00.000
00:08:57.583                             : en:00:08:57.583
00:11:50.917                             : en:00:11:50.917
00:14:54.875                             : en:00:14:54.875
00:19:53.333                             : en:00:19:53.333
00:23:50.167                             : en:00:23:50.167
00:32:33.083                             : en:00:32:33.083
00:39:59.417                             : en:00:39:59.417
00:47:21.583                             : en:00:47:21.583
00:49:53.917                             : en:00:49:53.917
00:53:20.167                             : en:00:53:20.167
01:00:49.375                             : en:01:00:49.375
01:09:54.875                             : en:01:09:54.875
01:19:41.083                             : en:01:19:41.083
01:24:15.250                             : en:01:24:15.250
01:43:26.083                             : en:01:43:26.083
01:52:14.542                             : en:01:52:14.542
01:59:50.542                             : en:01:59:50.542

556a3e075f14002d3d51feea67f6dc1b.jpg
Category:Movies > Bollywood
Lang:Hindi
Total Size:2.44 GB



|| Download This Movie Via Single Resumable Links Size: 2.44 GB ||

Direct-1 Google Drive | Direct-2 | Direct-3 |

Watch Online Click Here

Post a Comment

0 Comments