A Wednesday (2008) Hindi 720p BluRay mHD x264 AC3 DD 5.1 -NhaNc3


Poster
24c44f08f20bd14cf15c58542b9d9a6d.jpg


iMDB
Imdb Picture Title: A Wednesday
Year: 2008
Runtime: 104 minutes
Votes: 63617
Rating: 8.2/10
Language: Hindi, English
Country: India
All Genres: Crime, Drama, Mystery, Thriller
Plot Outline: A man calls up the Mumbai police, and tells them he has placed five different bombs in the city -- all set to go off in some time. He wants four terrorists in exchange. Does he get them? Who is behind it all? What's his motive? Is there more than meets the eye? Written by Saurabh Roy
Director: Neeraj Pandey
Writing By: Neeraj Pandey,Neeraj Pandey,
Produced By: Usha Balram,Shital Bhatia,Rajesh Ganguly,B.L. Gautam,Siddharth Roy Kapur,Alpana Mishra,Neerja Narayanan,Abbas Rizvi,Anjum Rizvi,Ronnie Screwvala,
Music: Sanjoy Chowdhury
Cast:
Anupam Kher as Prakash Rathod
Naseeruddin Shah as The Common Man
Jimmy Sheirgill as Arif Khan
Deepal Shaw as Naina Roy
Aamir Bashir as Jai Singh
Kali Prasad Mukherjee as Ibrahim Khan
Mukesh Bhatt as Khurshid Lala
Gaurav Kapoor as Ajay Khanna
Chetan Pandit as Chief Minister
Veerendra Saxena as Babu
Trailers:
A Wednesday trailer

Details
Name:A Wednesday (2008) Hindi 720p BluRay mHD x264 AC3 DD 5.1 -NhaNc3
Description:
A Wednesday (2008) Hindi 720p BluRay mHD x264 AC3 DD 5.1 -NhaNc3
c25a93f0794114c062f67c82a11e2643.png
Format                                   : Matroska
Format version                           : Version 2
File size                                : 1.74 GiB
Duration                                 : 1 h 43 min
Overall bit rate                         : 2 405 kb/s
Encoded date                             : UTC 2011-02-02 18:21:18
Writing application                      : mkvmerge v4.4.0 ('Die Wiederkehr') built on Oct 31 2010 21:52:48
Writing library                          : libebml v1.0.0 + libmatroska v1.0.0

Video
ID                                       : 1
Format                                   : AVC
Format/Info                              : Advanced Video Codec
Format profile                           : High@L4.1
Format settings                          : CABAC / 8 Ref Frames
Format settings, CABAC                   : Yes
Format settings, ReFrames                : 8 frames
Codec ID                                 : V_MPEG4/ISO/AVC
Duration                                 : 1 h 43 min
Bit rate                                 : 2 084 kb/s
Width                                    : 1 280 pixels
Height                                   : 576 pixels
Display aspect ratio                     : 2.222
Frame rate mode                          : Constant
Frame rate                               : 24.000 FPS
Color space                              : YUV
Chroma subsampling                       : 4:2:0
Bit depth                                : 8 bits
Scan type                                : Progressive
Bits/(Pixel*Frame)                       : 0.118
Stream size                              : 1.48 GiB (85%)
Writing library                          : x264 core 112 r1867 22bfd31
Language                                 : English
Default                                  : Yes
Forced                                   : No
Color range                              : Limited
Color primaries                          : BT.709
Transfer characteristics                 : BT.709
Matrix coefficients                      : BT.709

Audio
ID                                       : 2
Format                                   : AC-3
Format/Info                              : Audio Coding 3
Codec ID                                 : A_AC3
Duration                                 : 1 h 43 min
Bit rate mode                            : Constant
Bit rate                                 : 320 kb/s
Channel(s)                               : 6 channels
Channel positions                        : Front: L C R, Side: L R, LFE
Sampling rate                            : 48.0 kHz
Frame rate                               : 31.250 FPS (1536 SPF)
Bit depth                                : 16 bits
Compression mode                         : Lossy
Stream size                              : 238 MiB (13%)
Language                                 : English
Service kind                             : Complete Main
Default                                  : Yes
Forced                                   : Yes

Text
ID                                       : 3
Format                                   : UTF-8
Codec ID                                 : S_TEXT/UTF8
Codec ID/Info                            : UTF-8 Plain Text
Title                                    : KaMaL DDR
Language                                 : English
Default                                  : Yes
Forced                                   : No

ae80e52360b46c7c6bc144bf4af69fab.jpg
Category:Movies > Bollywood
Lang:Hindi
Total Size:1.74 GB



|| Download This Movie Via Single Resumable Links Size: 1.74 GB ||

Direct-1 Google Drive | Direct-2 | Direct-3 |

Watch Online Click Here

Post a Comment

0 Comments