Aashiqui (1990) Hindi 720p BluRay mHD x264 AC3 DD 5.1 -NhaNc3


Poster
f37015b451711566573230dd54f61fd1.jpg


iMDB
Imdb Picture Title: Aashiqui
Year: 1990
Runtime: 152 minutes
Votes: 1294
Rating: 6.3/10
Language: Hindi
Country: India
All Genres: Musical, Drama, Romance
Plot Outline: Things are not nice for both Rahul and Anu Verghese; with Rahul having a stressful family life to deal with and Anu; often being ill-treated by her hostel supervisor Arnie Campbell which makes her run away time and again. Both meet with each other and fall in love only to get married; but even after marriage things once again turn sour which eventually made the couple split up. Written by gavin (racktoo@hotmail.com)
Tagline: Love Makes Life Live
Director: Mahesh Bhatt
Writing By: Robin Bhatt,Robin Bhatt,Robin Bhatt,Akash Khurana,Akash Khurana,Akash Khurana,
Produced By: Mukesh Bhatt,Gulshan Kumar,
Music: Shravan Rathod Nadeem Saifi
Cast:
Rahul Roy as Rahul Roy
Anu Agrawal as Anu Verghese
Avtar Gill as Police Inspector Deshpande
Tom Alter as Arnie Campbell
Reema Lagoo as Mrs. Vikram Roy
Homi Wadia as Mr. Padamsee
Anang Desai as Mr. Paul
Mushtaq Khan as Rafoo Master
Javed Khan as Uncle Peter
Deepak Tijori as Balu

Details
Name:Aashiqui (1990) Hindi 720p BluRay mHD x264 AC3 DD 5.1 -NhaNc3
Description:
Aashiqui (1990) Hindi 720p BluRay mHD x264 AC3 DD 5.1 -NhaNc3

f37015b451711566573230dd54f61fd1.jpg

Format                                   : Matroska
Format version                           : Version 2
File size                                : 2.19 GiB
Duration                                 : 2 h 27 min
Overall bit rate                         : 2 131 kb/s
Encoded date                             : UTC 2010-10-16 15:48:03
Writing application                      : mkvmerge v4.0.0 ('The Stars were mine') built on Jun  6 2010 16:18:42
Writing library                          : libebml v1.0.0 + libmatroska v1.0.0

Video
ID                                       : 1
Format                                   : AVC
Format/Info                              : Advanced Video Codec
Format profile                           : High@L4.1
Format settings                          : CABAC / 8 Ref Frames
Format settings, CABAC                   : Yes
Format settings, ReFrames                : 8 frames
Codec ID                                 : V_MPEG4/ISO/AVC
Duration                                 : 2 h 27 min
Bit rate                                 : 1 902 kb/s
Width                                    : 1 280 pixels
Height                                   : 544 pixels
Display aspect ratio                     : 2.35:1
Frame rate mode                          : Constant
Frame rate                               : 24.000 FPS
Color space                              : YUV
Chroma subsampling                       : 4:2:0
Bit depth                                : 8 bits
Scan type                                : Progressive
Bits/(Pixel*Frame)                       : 0.114
Stream size                              : 1.92 GiB (87%)
Writing library                          : x264 core 98 r1649 20cbe10
Language                                 : English
Default                                  : No
Forced                                   : No

Audio
ID                                       : 2
Format                                   : AC-3
Format/Info                              : Audio Coding 3
Codec ID                                 : A_AC3
Duration                                 : 2 h 27 min
Bit rate mode                            : Constant
Bit rate                                 : 224 kb/s
Channel(s)                               : 6 channels
Channel positions                        : Front: L C R, Side: L R, LFE
Sampling rate                            : 48.0 kHz
Frame rate                               : 31.250 FPS (1536 SPF)
Bit depth                                : 16 bits
Compression mode                         : Lossy
Stream size                              : 236 MiB (11%)
Language                                 : Hindi
Service kind                             : Complete Main
Default                                  : Yes
Forced                                   : No

Text
ID                                       : 3
Format                                   : VobSub
Muxing mode                              : zlib
Codec ID                                 : S_VOBSUB
Codec ID/Info                            : Picture based subtitle format used on DVDs
Language                                 : English
Default                                  : Yes
Forced                                   : No

dd4b793bc89a473d234c7ce6c5d8413e.jpg
Category:Movies > Bollywood
Lang:Hindi
Total Size:2.19 GB





|| Download This Movie Via Single Resumable Links Size: 2.19 GB ||

Direct-1 Google Drive | Direct-2 | Direct-3 |

Watch Online Click Here

Post a Comment

0 Comments