Aashiqui 2 (2013) Hindi 720p BluRay mHD x264 AC3 DD 5.1 -NhaNc3


Poster
67ee3dc1591f49fb89fa2a36ba4de8ba.jpg


iMDB
Imdb Picture Title: Aashiqui 2
Year: 2013
Runtime: 132 minutes
Votes: 22301
Rating: 7.0/10
Language: Hindi
Country: India
All Genres: Drama, Music, Musical, Romance
Plot Outline: Rahul loses his fans and fame due to alcoholism. But he then decides to turn a small time singer into a rising star.
Tagline: Love Makes Life Live...
Director: Mohit Suri
Writing By: Shagufta Rafique,
Produced By: Aleem Allie,Nizam Allie,Mehboob Bawa,Mahesh Bhatt,Mukesh Bhatt,Dilip Borkar,Noorie Hassan,Bhushan Kumar,Krishan Kumar,
Music: Jeet Gannguli Mithun Sharma Ankit Tiwari
Plot:
Rahul is a singer, who loses his career due to his drinking habits. He meets Arohi in a bar in Goa, where she works to earn a living. Impressed by her singing, he promises her to take her to Mumbai and make her a star, where they fall in love with each other. Aashiqui 2 is a musical love story of these lovers who goes through love and hate, fame and failure in their lives. However will they stay together accepting their success, or will they breakup due to their ego?
- Written by Manisha Krishna
Rahul Jaiker (Aditya Rao Kapoor) is a successful singer but is a drug addict and has alcohol problems. One night in a bar he sees Aarohi (Shraddha Kapoor) performing his song. He is highly impressed and vows to make her a star. After some problems, Aarohi finally becomes a successful singer, however Rahul and his drinking issues is always a distraction for her. Will Rahul be able to get rid of his alcoholic habits? Or will Aarohi give up her singing career to save Rahul's life?
- Written by Saaki
Rahul loses his fans and fame due to alcoholism. But he then decides to turn a small time singer into a rising star.
- Written by alex.mjack@gmail.com
Cast:
Aditya Roy Kapoor as Rahul Jaykar
Shraddha Kapoor as Arohi Keshav Shirke
Shaad Randhawa as Vivek
Salil Acharya as
Chitrak Bandyopadhyay as Salim Bhai
Bugs Bhargava as
Ashish Bhatt as News Reporter
Gagan Gupta as
Shubhangi Latkar as
Soumyajit Majumdar as
Trailers:
International Version


Details
Name:Aashiqui 2 (2013) Hindi 720p BluRay mHD x264 AC3 DD 5.1 -NhaNc3
Description:
 Aashiqui 2 (2013) Hindi 720p BluRay mHD x264 AC3 DD 5.1 -NhaNc3
545f13de8d272d421ff8c9486440f926.jpg

Format                                   : Matroska
Format version                           : Version 2
File size                                : 2.64 GiB
Duration                                 : 2 h 12 min
Overall bit rate                         : 2 846 kb/s
Encoded date                             : UTC 2013-06-25 22:42:25
Writing application                      : mkvmerge v4.9.1 ('Ich will') built on Jul 11 2011 23:53:15
Writing library                          : libebml v1.2.1 + libmatroska v1.1.1

Video
ID                                       : 1
Format                                   : AVC
Format/Info                              : Advanced Video Codec
Format profile                           : High@L4.1
Format settings                          : CABAC / 8 Ref Frames
Format settings, CABAC                   : Yes
Format settings, ReFrames                : 8 frames
Codec ID                                 : V_MPEG4/ISO/AVC
Duration                                 : 2 h 12 min
Bit rate                                 : 2 461 kb/s
Width                                    : 1 280 pixels
Height                                   : 544 pixels
Display aspect ratio                     : 2.35:1
Frame rate mode                          : Constant
Frame rate                               : 24.000 FPS
Color space                              : YUV
Chroma subsampling                       : 4:2:0
Bit depth                                : 8 bits
Scan type                                : Progressive
Bits/(Pixel*Frame)                       : 0.147
Stream size                              : 2.23 GiB (85%)
Writing library                          : x264 core 130 r2273 b3065e6
Language                                 : English
Default                                  : Yes
Forced                                   : No
Color range                              : Limited
Color primaries                          : BT.709
Transfer characteristics                 : BT.709
Matrix coefficients                      : BT.709

Audio
ID                                       : 2
Format                                   : AC-3
Format/Info                              : Audio Coding 3
Codec ID                                 : A_AC3
Duration                                 : 2 h 12 min
Bit rate mode                            : Constant
Bit rate                                 : 384 kb/s
Channel(s)                               : 6 channels
Channel positions                        : Front: L C R, Side: L R, LFE
Sampling rate                            : 48.0 kHz
Frame rate                               : 31.250 FPS (1536 SPF)
Bit depth                                : 16 bits
Compression mode                         : Lossy
Stream size                              : 364 MiB (13%)
Language                                 : English
Service kind                             : Complete Main
Default                                  : Yes
Forced                                   : Yes

Menu
00:00:00.000                             : en:Intro
00:03:58.958                             : en:Track 2
00:12:32.250                             : en:Track 3
00:15:39.708                             : en:Track 4
00:28:22.333                             : en:Track 5
00:40:49.000                             : en:Track 6
00:43:53.416                             : en:Track 7
00:49:00.875                             : en:Track 8
00:54:02.416                             : en:Track 9
01:00:18.833                             : en:Track 10
01:02:13.958                             : en:Track 11
01:12:41.833                             : en:Track 12
01:17:29.375                             : en:Track 13
01:21:42.250                             : en:Track 14
01:28:27.291                             : en:Track 15
01:38:59.291                             : en:Track 16
01:44:31.791                             : en:Track 17
02:01:21.666                             : en:Track 18
02:03:19.791                             : en:Track 19
02:07:42.833                             : en:Track 20
02:09:51.916                             : en:Track 21

5044508b795bf3f0e777273c3a94ecdf.jpg
Category:Movies > Bollywood
Lang:Hindi
Total Size:2.64 GB



|| Download This Movie Via Single Resumable Links Size: 2.64 GB ||

Direct-1 Google Drive | Direct-2 | Direct-3 |

Watch Online Click Here

Post a Comment

0 Comments