Crazy World Only 4 You

Sorry For The Inconvenience. If You are facing link dead or no google drive file access then inform us via comment

Latest Updates

Saturday, 14 July 2018

Action Replayy (2010) Hindi 720p BluRay mHD x264 AC3 DD 5.1 -NhaNc3


Poster
0d183b584351c326cac7a6ae725dd0e8.jpg


iMDB
Imdb Picture Original Title: Action Replayy
Title: Action Replay
Year: 2010
Runtime: 129 minutes
Votes: 4621
Rating: 4.2/10
Language: Hindi
Country: India
All Genres: Comedy, Drama, Musical, Romance, Sci-Fi
Plot Outline: After witnessing nothing but acrimony between his bickering Mumbai-based parents, Kishen and Mala Chopra, Bunty refuses to marry his girlfriend, Tanya Gonsalves. He is then introduced to her eccentric grandfather, Professor Anthony Gonsalves, and finds that the latter has invented a time-travel machine. Bunty travels back in time - specifically Holi 1975 - when Mumbai was called Bombay and gets to meet his parents when they were younger. He is shocked to find his buck-toothed wimpy father, and his mother - a goon-like tomboy. Amidst the terror of Raman Raghav, the impending Emergency of former Prime Minister Indira Gandhi, banning of multinationals - including Coca Cola - and the Charisma of superstar Rajesh Khanna - he sets about to try and set things right between not only his bickering parents but also his feuding grandparents. He will soon find out that his mother has another admirer - who will not leave any stone unturned to marry her. Written by rAjOo (gunwanti@hotmail.com)
Tagline: He went back in time to save his parents' love story.
Director: Vipul Amrutlal Shah
Writing By: Irshad Kamil,Aatish Kapadia,Aatish Kapadia,Suresh Nair,Ritesh Shah,
Produced By: Sanjay Bali,Nitin Chandrachud,Aashin A. Shah,Vipul Amrutlal Shah,
Music: Pritam Chakraborty Salim Merchant Salim-Sulaiman
Cast:
Akshay Kumar as Kishen Chopra
Aishwarya Rai Bachchan as Mala Malhotra / Mala K. Chopra
Om Puri as Rai Bahadur Dhyanchand
Kiron Kher as Bholi Devi
Neha Dhupia as Mona / Maa Jogeshwari
Rannvijay Singh as Kundanlal Kapoor
Aditya Roy Kapoor as Bunty K. Chopra
Sudeepa Singh as Tanya Gonsalves
Randhir Kapoor as Professor Anthony Gonsalves
Rajpal Yadav as Bhiku

Details
Name:Action Replayy (2010) Hindi 720p BluRay mHD x264 AC3 DD 5.1 -NhaNc3
Description:
Action Replayy (2010) Hindi 720p BluRay mHD x264 AC3 DD 5.1 -NhaNc3 


0d183b584351c326cac7a6ae725dd0e8.jpg




Format                                   : Matroska
Format version                           : Version 2
File size                                : 2.54 GiB
Duration                                 : 2 h 9 min
Overall bit rate                         : 2 804 kb/s
Encoded date                             : UTC 2011-06-17 11:01:28
Writing application                      : mkvmerge v4.8.0 ('I Got The...') built on May 24 2011 03:12:58
Writing library                          : libebml v1.2.0 + libmatroska v1.1.0

Video
ID                                       : 1
Format                                   : AVC
Format/Info                              : Advanced Video Codec
Format profile                           : High@L4.1
Format settings                          : CABAC / 5 Ref Frames
Format settings, CABAC                   : Yes
Format settings, ReFrames                : 5 frames
Muxing mode                              : Header stripping
Codec ID                                 : V_MPEG4/ISO/AVC
Duration                                 : 2 h 9 min
Bit rate                                 : 2 419 kb/s
Width                                    : 1 280 pixels
Height                                   : 576 pixels
Display aspect ratio                     : 2.222
Frame rate mode                          : Constant
Frame rate                               : 24.000 FPS
Color space                              : YUV
Chroma subsampling                       : 4:2:0
Bit depth                                : 8 bits
Scan type                                : Progressive
Bits/(Pixel*Frame)                       : 0.137
Stream size                              : 2.14 GiB (84%)
Writing library                          : x264 core 114 r1924 08d04a4
Encoding settings                        : cabac=1 / ref=5 / deblock=1:0:0 / analyse=0x3:0x113 / me=umh / subme=9 / psy=1 / psy_rd=1.00:0.00 / mixed_ref=1 / me_range=16 / chroma_me=1 / trellis=1 / 8x8dct=1 / cqm=0 / deadzone=21,11 / fast_pskip=1 / chroma_qp_offset=-2 / threads=12 / sliced_threads=0 / nr=0 / decimate=1 / interlaced=0 / constrained_intra=0 / bframes=5 / b_pyramid=2 / b_adapt=1 / b_bias=0 / direct=1 / weightb=1 / open_gop=0 / weightp=2 / keyint=250 / keyint_min=24 / scenecut=40 / intra_refresh=0 / rc_lookahead=40 / rc=2pass / mbtree=1 / bitrate=2419 / ratetol=1.0 / qcomp=0.60 / qpmin=0 / qpmax=69 / qpstep=4 / cplxblur=20.0 / qblur=0.5 / vbv_maxrate=20000 / vbv_bufsize=15000 / nal_hrd=none / ip_ratio=1.40 / aq=1:1.00
Language                                 : English
Default                                  : Yes
Forced                                   : No
Color range                              : Limited
Color primaries                          : BT.709
Transfer characteristics                 : BT.709
Matrix coefficients                      : BT.709

Audio
ID                                       : 2
Format                                   : AC-3
Format/Info                              : Audio Coding 3
Muxing mode                              : Header stripping
Codec ID                                 : A_AC3
Duration                                 : 2 h 9 min
Bit rate mode                            : Constant
Bit rate                                 : 384 kb/s
Channel(s)                               : 6 channels
Channel positions                        : Front: L C R, Side: L R, LFE
Sampling rate                            : 48.0 kHz
Frame rate                               : 31.250 FPS (1536 SPF)
Bit depth                                : 16 bits
Compression mode                         : Lossy
Stream size                              : 356 MiB (14%)
Service kind                             : Complete Main
Default                                  : Yes
Forced                                   : No

Text #1
ID                                       : 3
Format                                   : UTF-8
Codec ID                                 : S_TEXT/UTF8
Codec ID/Info                            : UTF-8 Plain Text
Language                                 : English
Default                                  : Yes
Forced                                   : No

Text #2
ID                                       : 4
Format                                   : UTF-8
Codec ID                                 : S_TEXT/UTF8
Codec ID/Info                            : UTF-8 Plain Text
Language                                 : French
Default                                  : No
Forced                                   : No

Menu
00:00:00.000                             : en:00:00:00.000
00:03:24.000                             : en:00:03:24.000
00:07:49.000                             : en:00:07:49.000
00:15:32.833                             : en:00:15:32.833
00:19:07.417                             : en:00:19:07.417
00:22:23.625                             : en:00:22:23.625
00:33:21.417                             : en:00:33:21.417
00:37:16.417                             : en:00:37:16.417
00:47:38.417                             : en:00:47:38.417
00:56:19.000                             : en:00:56:19.000
01:00:17.833                             : en:01:00:17.833
01:06:36.625                             : en:01:06:36.625
01:15:24.000                             : en:01:15:24.000
01:20:07.000                             : en:01:20:07.000
01:30:00.000                             : en:01:30:00.000
01:38:34.417                             : en:01:38:34.417
01:45:46.000                             : en:01:45:46.000
01:50:38.833                             : en:01:50:38.833
01:54:55.833                             : en:01:54:55.833
02:06:27.833                             : en:02:06:27.833



b70148395e24aecf123c34bd65242b7f.jpg
Category:Movies > Bollywood
Lang:Hindi
Total Size:2.54 GB



|| Download This Movie Via Single Resumable Links Size: 2.54 GB ||

Direct-1 Google Drive | Direct-2 | Direct-3 |

Watch Online Click Here

No comments:

Post a Comment