Agneepath (2012) Hindi 720p BluRay mHD x264 AC3 DD 5.1 -NhaNc3


Poster
fa94cb579b29efd7ba1fd5ff0608f464.jpg


iMDB
Imdb Picture Title: Agneepath
Year: 2012
Runtime: 174 minutes
Votes: 19531
Rating: 7.0/10
Language: Hindi, Marathi, English
Country: India
All Genres: Action, Crime, Drama
Plot Outline: Agneepath is a story of revenge of Vijay Chauhan against an evil and sadistic Kaancha, who hangs Vijay's father to death. Vijay grows up with a single aim of avenging his father's death. The story revolves around Vijay Chauhan, his relationships with his family and above all, his Revenge. Written by CodeReplugd
Director: Karan Malhotra
Writing By: Ila Bedi Dutta,Karan Malhotra,Piyush Mishra,
Produced By: Sumeet Chawla,Hiroo Johar,Karan Johar,Prashant Kunder,Apoorva Mehta,
Music: Ajay Gogavale Atul Gogavale
Cast:
Hrithik Roshan as Vijay Deenanath Chauhan
Priyanka Chopra as Kaali
Sanjay Dutt as Kancha Cheena
Rishi Kapoor as Rauf Lala
Madhurjeet Sarghi as Lachhi
Rajesh Tandon as Mazhar Lala
Kanika Tiwari as Shiksha Chauhan
Om Puri as Gaitonde
Arush Bhiwandiwala as
Deven Bhojani as Azhar Lala
Trailers:
Agneepath (2012)



Details
Name:Agneepath (2012) Hindi 720p BluRay mHD x264 AC3 DD 5.1 -NhaNc3
Description:
Agneepath (2012) Hindi 720p BluRay mHD x264 AC3 DD 5.1 -NhaNc3  

efc1ab8d521c94014292db850209d95a.jpg

Format                                   : Matroska
Format version                           : Version 2
File size                                : 3.42 GiB
Duration                                 : 2 h 54 min
Overall bit rate                         : 2 809 kb/s
Encoded date                             : UTC 2012-07-27 04:23:19
Writing application                      : mkvmerge v4.8.0 ('I Got The...') built on May 24 2011 03:12:58
Writing library                          : libebml v1.2.0 + libmatroska v1.1.0

Video
ID                                       : 1
Format                                   : AVC
Format/Info                              : Advanced Video Codec
Format profile                           : High@L4.1
Format settings                          : CABAC / 5 Ref Frames
Format settings, CABAC                   : Yes
Format settings, ReFrames                : 5 frames
Codec ID                                 : V_MPEG4/ISO/AVC
Duration                                 : 2 h 54 min
Bit rate                                 : 2 425 kb/s
Width                                    : 1 280 pixels
Height                                   : 544 pixels
Display aspect ratio                     : 2.35:1
Frame rate mode                          : Constant
Frame rate                               : 24.000 FPS
Color space                              : YUV
Chroma subsampling                       : 4:2:0
Bit depth                                : 8 bits
Scan type                                : Progressive
Bits/(Pixel*Frame)                       : 0.145
Stream size                              : 2.88 GiB (84%)
Writing library                          : x264 core 125 r2200 999b753
Language                                 : English
Default                                  : Yes
Forced                                   : No
Color range                              : Limited
Color primaries                          : BT.709
Transfer characteristics                 : BT.709
Matrix coefficients                      : BT.709

Audio
ID                                       : 2
Format                                   : AC-3
Format/Info                              : Audio Coding 3
Codec ID                                 : A_AC3
Duration                                 : 2 h 54 min
Bit rate mode                            : Constant
Bit rate                                 : 384 kb/s
Channel(s)                               : 6 channels
Channel positions                        : Front: L C R, Side: L R, LFE
Sampling rate                            : 48.0 kHz
Frame rate                               : 31.250 FPS (1536 SPF)
Bit depth                                : 16 bits
Compression mode                         : Lossy
Stream size                              : 478 MiB (14%)
Language                                 : English
Service kind                             : Complete Main
Default                                  : Yes
Forced                                   : Yes

6135433b8f7599f38999b45e93f50b7c.jpg
Category:Movies > Bollywood
Lang:Hindi
Total Size:3.42 GB



|| Download This Movie Via Single Resumable Links Size: 3.42 GB ||

Direct-1 Google Drive | Direct-2 | Direct-3 |

Watch Online Click Here

Post a Comment

0 Comments