Crazy World Only 4 You

Sorry For The Inconvenience. If You are facing link dead or no google drive file access then inform us via comment

Latest Updates

Saturday, 14 July 2018

Aisha (2010) Hindi 720p BluRay mHD x264 AC3 DD 5.1 -NhaNc3


Poster
871ea5ec33cf1dbf2684d6669893e209.jpg


iMDB
Imdb Picture Title: Aisha
Year: 2010
Runtime: 126 minutes
Votes: 3368
Rating: 5.0/10
Language: Hindi
Country: India
All Genres: Comedy, Drama, Romance
Plot Outline: After successfully arranging the marriage of her Delhi-based spinster aunt, Chitra, to Colonel Raghuvendra Singh, self-styled 'Event Manager', Aisha Kapoor, decides to turn match-maker. She is convinced that she can find the right match for anyone, including Bahadurgarh-based naive and innocent Shefali Thakur. Chaos and bitterness results after Aisha decides to convert Shefali into a modern and fashionable woman, and concludes that Randhir Gambhir is the ideal groom for her. Written by rAjOo (gunwanti@hotmail.com)
Director: Rajshree Ojha
Writing By: Jane Austen,Devika Bhagat,Devika Bhagat,Ritu Bhatia,Manu Rishi Chadha,
Produced By: Ajay Bijli,Sanjeev K. Bijli,Kamal Gianchandani,Anil Kapoor,Rhea Kapoor,Manoj Mittra,Kuldeep Rathore,Tarlok Singh,
Music: Amit Trivedi
Cast:
Sonam Kapoor as Aisha Kapoor
Abhay Deol as Arjun Burman
Amrita Puri as Shefali Thakur
Cyrus Sahukar as Randhir Gambhir
Arunoday Singh as Dhruv Singh
Masood Akhtar as Sant Ram
Arunav Chatterjee as Bunty Kumar
Ira Dubey as Pinky Bose
Lisa Haydon as Aarti Menon
Jasmeet Kaur as Gurpreet / Mandeep Kaur



Details
Name:Aisha (2010) Hindi 720p BluRay mHD x264 AC3 DD 5.1 -NhaNc3
Description:
Aisha (2010) Hindi 720p BluRay mHD x264 AC3 DD 5.1 -NhaNc3  

d3422986a8c0b6e24bfde943ad91f2fd.jpg

Format                                   : Matroska
Format version                           : Version 2
File size                                : 2.17 GiB
Duration                                 : 2 h 11 min
Overall bit rate                         : 2 363 kb/s
Encoded date                             : UTC 2011-02-01 08:33:47
Writing application                      : mkvmerge v4.4.0 ('Die Wiederkehr') built on Oct 31 2010 21:52:48
Writing library                          : libebml v1.0.0 + libmatroska v1.0.0

Video
ID                                       : 1
Format                                   : AVC
Format/Info                              : Advanced Video Codec
Format profile                           : High@L4.1
Format settings                          : CABAC / 8 Ref Frames
Format settings, CABAC                   : Yes
Format settings, ReFrames                : 8 frames
Muxing mode                              : Header stripping
Codec ID                                 : V_MPEG4/ISO/AVC
Duration                                 : 2 h 11 min
Bit rate                                 : 2 042 kb/s
Width                                    : 1 280 pixels
Height                                   : 544 pixels
Display aspect ratio                     : 2.35:1
Frame rate mode                          : Constant
Frame rate                               : 24.000 FPS
Color space                              : YUV
Chroma subsampling                       : 4:2:0
Bit depth                                : 8 bits
Scan type                                : Progressive
Bits/(Pixel*Frame)                       : 0.122
Stream size                              : 1.84 GiB (84%)
Writing library                          : x264 core 112 r1867 22bfd31
Language                                 : English
Default                                  : Yes
Forced                                   : No
Color range                              : Limited
Color primaries                          : BT.709
Transfer characteristics                 : BT.709
Matrix coefficients                      : BT.709

Audio
ID                                       : 2
Format                                   : AC-3
Format/Info                              : Audio Coding 3
Muxing mode                              : Header stripping
Codec ID                                 : A_AC3
Duration                                 : 2 h 11 min
Bit rate mode                            : Constant
Bit rate                                 : 320 kb/s
Channel(s)                               : 6 channels
Channel positions                        : Front: L C R, Side: L R, LFE
Sampling rate                            : 48.0 kHz
Frame rate                               : 31.250 FPS (1536 SPF)
Bit depth                                : 16 bits
Compression mode                         : Lossy
Stream size                              : 302 MiB (14%)
Language                                 : Hindi
Service kind                             : Complete Main
Default                                  : Yes
Forced                                   : No

Text
ID                                       : 3
Format                                   : UTF-8
Codec ID                                 : S_TEXT/UTF8
Codec ID/Info                            : UTF-8 Plain Text
Title                                    : KaMaL DDR
Language                                 : English
Default                                  : Yes
Forced                                   : No


a9c0172e394ed84b79410927cb093e4d.jpg
Category:Movies > Bollywood
Lang:Hindi
Total Size:2.17 GB





|| Download This Movie Via Single Resumable Links Size: 2.17 GB ||

Direct-1 Google Drive | Direct-2 | Direct-3 |

Watch Online Click Here

No comments:

Post a Comment