Ajab Prem Ki Ghazab Kahani (2009) Hindi 720p BluRay mHD x264 AC3 DD 5.1 -NhaNc3


Poster
9706caf338979ba52025088e548c821c.jpg


iMDB
Imdb Picture Title: Ajab Prem Ki Ghazab Kahani
Year: 2009
Runtime: 150 minutes
Votes: 9794
Rating: 6.3/10
Language: Hindi
Country: India
All Genres: Action, Comedy, Fantasy, Romance
Plot Outline: A statue in a town's square narrates to a journalist the story of 9th standard-failed, unemployed, trouble-maker and stutterer Premshankar Sharma. Premshankar, cons Mr. Pinto into buying a dilapidated flat to pay for expenses of the Happy Club over which he presides, much to the disapproval of his restaurateur father, Shivshankar, who wants him to wed Shakuntala Mishra. Premshankar's life will undergo many changes after he falls in love with Pinto's adopted daughter, Jenny. He believes that she also loves him, and even helps her to elope after her parents force her to wed wealthy Tony. Premshankar ends up in despair when he finds out that Jenny's true love is Canada-based Rahul, the son of wealthy politician, Pitambar Jalan. Written by rAjOo (gunwanti@hotmail.com)
Director: Rajkumar Santoshi
Writing By: K. Rajeshwar,Rajkumar Santoshi,R.D. Tailang,R.D. Tailang,
Produced By: Dilip Advani,Ramesh Sadhuram Taurani,
Music: Pritam Chakraborty Salim Merchant Salim-Sulaiman
Cast:
Katrina Kaif as Jenny Pinto
Ranbir Kapoor as Premshankar 'Prem' S. Sharma
Darshan Jariwala as Shivshankar Sharma
Smita Jaykar as Sharda S. Sharma
Zakir Hussain as Sajid
Upen Patel as Rahul P. Jalan
Rana Jung Bahadur as Police Inspector
Abhay Bhargav as
Dolly Bindra as Mrs. P. Jalan
Vishwanath Chatterjee as Chander
Trailers:
Ajab Prem Ki Ghazab Kahani (2009) Trailer

Details
Name:Ajab Prem Ki Ghazab Kahani (2009) Hindi 720p BluRay mHD x264 AC3 DD 5.1 -NhaNc3
Description:
Ajab Prem Ki Ghazab Kahani (2009) Hindi 720p BluRay mHD x264 AC3 DD 5.1 -NhaNc3  

9706caf338979ba52025088e548c821c.jpg


Format                                   : Matroska
Format version                           : Version 2
File size                                : 2.19 GiB
Duration                                 : 2 h 30 min
Overall bit rate                         : 2 076 kb/s
Encoded date                             : UTC 2010-12-23 20:09:57
Writing application                      : mkvmerge v4.4.0 ('Die Wiederkehr') built on Oct 31 2010 21:52:48
Writing library                          : libebml v1.0.0 + libmatroska v1.0.0

Video
ID                                       : 1
Format                                   : AVC
Format/Info                              : Advanced Video Codec
Format profile                           : High@L4.1
Format settings                          : CABAC / 7 Ref Frames
Format settings, CABAC                   : Yes
Format settings, ReFrames                : 7 frames
Muxing mode                              : Header stripping
Codec ID                                 : V_MPEG4/ISO/AVC
Duration                                 : 2 h 30 min
Bit rate                                 : 1 755 kb/s
Width                                    : 1 280 pixels
Height                                   : 544 pixels
Display aspect ratio                     : 2.35:1
Frame rate mode                          : Constant
Frame rate                               : 23.976 FPS
Color space                              : YUV
Chroma subsampling                       : 4:2:0
Bit depth                                : 8 bits
Scan type                                : Progressive
Bits/(Pixel*Frame)                       : 0.105
Stream size                              : 1.81 GiB (83%)
Writing library                          : x264 core 110 r1820 fdcf2ae
Language                                 : English
Default                                  : Yes
Forced                                   : No

Audio
ID                                       : 2
Format                                   : AC-3
Format/Info                              : Audio Coding 3
Muxing mode                              : Header stripping
Codec ID                                 : A_AC3
Duration                                 : 2 h 30 min
Bit rate mode                            : Constant
Bit rate                                 : 320 kb/s
Channel(s)                               : 6 channels
Channel positions                        : Front: L C R, Side: L R, LFE
Sampling rate                            : 48.0 kHz
Frame rate                               : 31.250 FPS (1536 SPF)
Bit depth                                : 16 bits
Compression mode                         : Lossy
Stream size                              : 345 MiB (15%)
Language                                 : Hindi
Service kind                             : Complete Main
Default                                  : Yes
Forced                                   : No

Text
ID                                       : 3
Format                                   : UTF-8
Codec ID                                 : S_TEXT/UTF8
Codec ID/Info                            : UTF-8 Plain Text
Language                                 : English
Default                                  : Yes
Forced                                   : No



8c2e70d9538591683e75ce0f517c16a9.jpg
Category:Movies > Bollywood
Lang:Hindi
Total Size:2.19 GB



|| Download This Movie Via Single Resumable Links Size: 2.19 GB ||

Direct-1 Google Drive | Direct-2 | Direct-3 |

Watch Online Click Here

Post a Comment

0 Comments