All the Best: Fun Begins (2009) Hindi 720p BluRay mHD x264 AC3 DD 5.1 -NhaNc3


Poster
65eaf3e95b36f38898a447d53d05d182.jpg


iMDB
Imdb Picture Title: All the Best: Fun Begins
Year: 2009
Runtime: 144 minutes
Votes: 4599
Rating: 6.1/10
Language: Hindi
Country: India
All Genres: Action, Comedy, Drama, Musical
Plot Outline: Veer Kapoor lives in a palatial bungalow in Goa along with his girlfriend, Vidya, and a maid, Mary. Every month he gets an allowance of Rs. 1 Lakh from his NRI brother, Dharam, which he uses to fund his band, as well as the dilapidated Gym of his friends, Prem and Jhanvi Chopra. Veer's life undergoes many hilarious changes after he decides to borrow money from a gangster called Tobu in order to bet on his friend, Prem, taking part in a car race. After Tobu applies pressure, Veer desperately rents the bungalow to a Zee Super Lottery Winner, Raghuvandas Goverdhandas Vakawale - but even more chaos and complications arise with the unexpected arrival of Dharam. Written by rAjOo (gunwanti@hotmail.com)
Director: Rohit Shetty
Writing By: Robin Bhatt,Kumaar,Bunty Rathore,Yunus Sajawal,Sajid,
Produced By: Inderjit Chadha,Ajay Devgn,Kumar Mangat Pathak,Vikrant Sharma,
Music: Pritam Chakraborty Sanjoy Chowdhury
Cast:
Sanjay Dutt as Dharam Kapoor
Ajay Devgn as Prem Chopra
Fardeen Khan as Veer Kapoor
Bipasha Basu as Jhanvi P. Chopra
Mugdha Godse as Vidya
Ashwini Kalsekar as Mary
Mukesh Tiwari as Chauthala
Johnny Lever as Tobu
Asrani as Vidya's father
Sanjay Mishra as Raghuvandas 'Raghu' 'RGV' Goverdhandas Vakawale



Details
Name:All the Best: Fun Begins (2009) Hindi 720p BluRay mHD x264 AC3 DD 5.1 -NhaNc3
Description:
All the Best: Fun Begins (2009) Hindi 720p BluRay mHD x264 AC3 DD 5.1 -NhaNc3 


9c1a6602179d3720451970a4ff993f05.jpg




Format                                   : Matroska
Format version                           : Version 2
File size                                : 2.19 GiB
Duration                                 : 2 h 20 min
Overall bit rate                         : 2 227 kb/s
Encoded date                             : UTC 2010-10-29 05:08:34
Writing application                      : mkvmerge v4.0.0 ('The Stars were mine') built on Jun  6 2010 16:18:42
Writing library                          : libebml v1.0.0 + libmatroska v1.0.0

Video
ID                                       : 1
Format                                   : AVC
Format/Info                              : Advanced Video Codec
Format profile                           : High@L4.1
Format settings                          : CABAC / 8 Ref Frames
Format settings, CABAC                   : Yes
Format settings, ReFrames                : 8 frames
Codec ID                                 : V_MPEG4/ISO/AVC
Duration                                 : 2 h 20 min
Bit rate                                 : 1 997 kb/s
Width                                    : 1 280 pixels
Height                                   : 544 pixels
Display aspect ratio                     : 2.35:1
Frame rate mode                          : Constant
Frame rate                               : 24.000 FPS
Color space                              : YUV
Chroma subsampling                       : 4:2:0
Bit depth                                : 8 bits
Scan type                                : Progressive
Bits/(Pixel*Frame)                       : 0.119
Stream size                              : 1.93 GiB (88%)
Writing library                          : x264 core 98 r1649 20cbe10
Language                                 : English
Default                                  : No
Forced                                   : No

Audio
ID                                       : 2
Format                                   : AC-3
Format/Info                              : Audio Coding 3
Codec ID                                 : A_AC3
Duration                                 : 2 h 20 min
Bit rate mode                            : Constant
Bit rate                                 : 224 kb/s
Channel(s)                               : 6 channels
Channel positions                        : Front: L C R, Side: L R, LFE
Sampling rate                            : 48.0 kHz
Frame rate                               : 31.250 FPS (1536 SPF)
Bit depth                                : 16 bits
Compression mode                         : Lossy
Stream size                              : 225 MiB (10%)
Language                                 : Hindi
Service kind                             : Complete Main
Default                                  : Yes
Forced                                   : No

Text
ID                                       : 3
Format                                   : VobSub
Muxing mode                              : zlib
Codec ID                                 : S_VOBSUB
Codec ID/Info                            : Picture based subtitle format used on DVDs
Language                                 : English
Default                                  : Yes
Forced                                   : No



ee6a9cea43e3cea780c226186d63efdc.jpg
Category:Movies > Bollywood
Lang:Hindi
Total Size:2.19 GB



|| Download This Movie Via Single Resumable Links Size: 2.19 GB ||

Direct-1 Google Drive | Direct-2 | Direct-3 |

Watch Online Click Here

Post a Comment

0 Comments