Crazy World Only 4 You

Sorry For The Inconvenience. If You are facing link dead or no google drive file access then inform us via comment

Latest Updates

Thursday, 12 July 2018

Angrezi Mein Kehte Hain (2018) Hindi 720p WEB-DL H264 AAC 2.0 ESubs ~Katyayan Exclusive~


Poster


iMDB
Imdb Picture Title: Angrezi Mein Kehte Hain
Year: 2018
Votes: 19
Rating: 8.3/10
Language: Hindi
Country: India
All Genres: Drama
Plot Outline: Angrezi Mein Kehte Hein is a family drama and explores changing relationships between a middle aged couple. Its about the realization that sometimes just loving someone is not enough and expressing that love is equally important.
Director: Harish Vyas
Writing By: Aryan Saha,Aryan Saha,Harish Vyas,Harish Vyas,Harish Vyas,
Produced By: Vikas Arora,Sanjay Barai,Sundeep Bhardwaj,Swaroop Chaturvedi,Bunty Khaan,Iqraar Khan,Jahangir Khan,Manav Malhotra,Sachin Vaish,
Music: Onir-Adil Ranjan Sharma
Cast:
Ipshita Chakroberty as Suman
Anshuman Jha as Jugunu
Brijendra Kala as Batti
Ekavali Khanna as Kiran Batra
Sanjay Mishra as Yashwant Batra
Shivani Raghuvanshi as Preeti
Teji Sandhu as Bua
Shukla as Manish shukla
Pankaj Tripathi as Feroz
Imran Zahid as Ravi
Trailers:
Angrezi Mein Kehte Hai Trailer



Details
Name:Angrezi Mein Kehte Hain (2018) Hindi 720p WEB-DL H264 AAC 2.0 ESubs ~Katyayan Exclusive~
Description:
Angrezi Mein Kehte Hain (2018) Hindi 720p WEB-DL H264 AAC 2.0 ESubs ~Katyayan Exclusive~



Specs

Source : AMZN

 
Format                                   : MPEG-4
Format profile                           : Base Media
Codec ID                                 : isom (isom/iso2/avc1/mp41)
File size                                : 1.10 GiB
Duration                                 : 1 h 48 min
Overall bit rate                         : 1 459 kb/s
Movie name                               : Angrezi Mein Kehte Hain
Writing application                      : Lavf58.12.100

Video
ID                                       : 1
Format                                   : AVC
Format/Info                              : Advanced Video Codec
Format profile                           : High@L3.1
Format settings                          : CABAC / 4 Ref Frames
Format settings, CABAC                   : Yes
Format settings, RefFrames               : 4 frames
Codec ID                                 : avc1
Codec ID/Info                            : Advanced Video Coding
Duration                                 : 1 h 48 min
Bit rate                                 : 1 338 kb/s
Width                                    : 1 280 pixels
Height                                   : 544 pixels
Display aspect ratio                     : 2.35:1
Frame rate mode                          : Constant
Frame rate                               : 25.000 FPS
Color space                              : YUV
Chroma subsampling                       : 4:2:0
Bit depth                                : 8 bits
Scan type                                : Progressive
Bits/(Pixel*Frame)                       : 0.077
Stream size                              : 1.00 GiB (91%)
Writing library                          : x264 core 148 r2643 5c65704

Audio
ID                                       : 2
Format                                   : AAC
Format/Info                              : Advanced Audio Codec
Format profile                           : LC
Codec ID                                 : mp4a-40-2
Duration                                 : 1 h 48 min
Bit rate mode                            : Constant
Bit rate                                 : 128 kb/s
Channel(s)                               : 2 channels
Channel(s)_Original                      : 1 channel
Channel positions                        : Front: C
Sampling rate                            : 44.1 kHz
Frame rate                               : 43.066 FPS (1024 SPF)
Compression mode                         : Lossy
Stream size                              : 99.1 MiB (9%)
Language                                 : Hindi
Default                                  : Yes
Alternate group                          : 1

Text
ID                                       : 3
Format                                   : ASS
Codec ID                                 : S_TEXT/ASS
Codec ID/Info                            : Advanced Sub Station Alpha
Compression mode                         : Lossless
Language                                 : English
Default                                  : No
Forced                                   : No

 

Screens:

d4sWE.th.png d4Sqv.th.png d4R7M.th.png d41yd.th.png d4HDt.th.png d4F89.th.png d4IF8.th.png d4rcD.th.png d4aBJ.th.png dRP75.th.png d4y4g.th.png dRQqm.th.png dRZbA.th.png dRvyR.th.png
Category:Movies > Bollywood
Lang:Hindi
Total Size:1.10 GB



|| Download This Movie Via Single Resumable Links Size: 1.10 GB ||

Direct-1 Google Drive | Direct-2 | Direct-3 |

Watch Online Click Here

No comments:

Post a Comment