Apaharan (2005) Hindi 720p BluRay mHD x264 AC3 DD 5.1 -NhaNc3


Poster
c420bd609200be507688574d285cef1c.jpg


iMDB
Imdb Picture Title: Apaharan
Year: 2005
Runtime: 173 minutes
Votes: 3566
Rating: 7.4/10
Language: Hindi
Country: India
All Genres: Action, Crime, Drama
Plot Outline: Ajay lives with his stern, honest, disciplinarian and Gandhian widowed father, Prof. (retd.) Raghuvansh Shastri. Ajay works as a salesman, but soon finds himself out of work. He applies for a position with the Police, but is turned down, even though he always makes it to the merit list. Finally he borrows 5 lakh rupees to bribe his way on the merit list, & soon his name is shown on the shortlist. Just before his selection, major differences crop up between Home Minister Dinkar Pandey and his dad, with the later threatening to expose the corruption within the State Ministry. Dinkar ensures that Ajay's name is dropped from the shortlist, and the money-lender sends his goons after him, giving him 3 days to come up with the money. A desperate Ajay decides to be part of the lucrative kidnapping scheme in Bihar, abducts a Government official and demands a ransom so that he can re-pay his loan. Unfortunately, this Government official was under the protection of underworld Don, Gaya Singh, ... Written by rAjOo (gunwanti@hotmail.com)
Director: Prakash Jha
Writing By: Prakash Jha,Prakash Jha,Prakash Jha,Shridhar Raghavan,Manoj Tyagi,
Produced By: Prakash Jha,
Music: Wayne Sharpe
Cast:
Ajay Devgn as Ajay Shastri
Nana Patekar as Tabrez Alam
Bipasha Basu as Megha Basu
Ayub Khan as Kashinath
Mohan Agashe as Professor Raghuvansh Shastri
Mukesh Tiwari as Anwar Khan
Yashpal Sharma as Gaya Singh
Anup Soni as Akash Ranjan
Chetan Pandit as Dinkar Pandey
Akhilendra Mishra as Brijnath Mishra



Details
Name:Apaharan (2005) Hindi 720p BluRay mHD x264 AC3 DD 5.1 -NhaNc3
Description:
 Apaharan (2005) Hindi 720p BluRay mHD x264 AC3 DD 5.1 -NhaNc3 

c420bd609200be507688574d285cef1c.jpg

Format                                   : Matroska
Format version                           : Version 2
File size                                : 2.19 GiB
Duration                                 : 2 h 49 min
Overall bit rate                         : 1 847 kb/s
Encoded date                             : UTC 2010-10-30 13:37:23
Writing application                      : mkvmerge v4.0.0 ('The Stars were mine') built on Jun  6 2010 16:18:42
Writing library                          : libebml v1.0.0 + libmatroska v1.0.0

Video
ID                                       : 1
Format                                   : AVC
Format/Info                              : Advanced Video Codec
Format profile                           : High@L4.1
Format settings                          : CABAC / 8 Ref Frames
Format settings, CABAC                   : Yes
Format settings, ReFrames                : 8 frames
Codec ID                                 : V_MPEG4/ISO/AVC
Duration                                 : 2 h 49 min
Bit rate                                 : 1 631 kb/s
Width                                    : 1 280 pixels
Height                                   : 544 pixels
Display aspect ratio                     : 2.35:1
Frame rate mode                          : Constant
Frame rate                               : 24.000 FPS
Color space                              : YUV
Chroma subsampling                       : 4:2:0
Bit depth                                : 8 bits
Scan type                                : Progressive
Bits/(Pixel*Frame)                       : 0.098
Stream size                              : 1.88 GiB (86%)
Writing library                          : x264 core 98 r1649 20cbe10
Language                                 : English
Default                                  : No
Forced                                   : No

Audio
ID                                       : 2
Format                                   : AC-3
Format/Info                              : Audio Coding 3
Codec ID                                 : A_AC3
Duration                                 : 2 h 49 min
Bit rate mode                            : Constant
Bit rate                                 : 224 kb/s
Channel(s)                               : 6 channels
Channel positions                        : Front: L C R, Side: L R, LFE
Sampling rate                            : 48.0 kHz
Frame rate                               : 31.250 FPS (1536 SPF)
Bit depth                                : 16 bits
Compression mode                         : Lossy
Stream size                              : 272 MiB (12%)
Language                                 : Hindi
Service kind                             : Complete Main
Default                                  : Yes
Forced                                   : No

Text
ID                                       : 3
Format                                   : UTF-8
Codec ID                                 : S_TEXT/UTF8
Codec ID/Info                            : UTF-8 Plain Text
Language                                 : English
Default                                  : Yes
Forced                                   : No



676ece61fc2b8197a6942b0b7fee383c.jpg
Category:Movies > Bollywood
Lang:Hindi
Total Size:2.19 GB



|| Download This Movie Via Single Resumable Links Size: 2.19 GB ||

Direct-1 Google Drive | Direct-2 | Direct-3 |

Watch Online Click Here

Post a Comment

0 Comments