Aurangzeb (2013) Hindi 720p BluRay mHD x264 AC3 DD 5.1 -NhaNc3


Poster
7c04d471bd28a0adb669dea3c8d36113.jpg


iMDB
Imdb Picture Title: Aurangzeb
Year: 2013
Runtime: 137 minutes
Votes: 3492
Rating: 6.6/10
Language: Hindi
Country: India
All Genres: Action, Drama, Thriller
Plot Outline: Gurgaon is the most modern boom-town of "India Shining", the new frontier to be conquered by those who understand real estate. This city rose from a small town to a boom town satellite city in just fifteen years. However the law and order is yet to catch up. A family of Policemen - A family of Gangsters - Under the guise of a respected citizen, Yashwardhan (Jackie Shroff) runs a parallel world - a world, where he is the Emperor. To bring down a criminal - the law will have to now think like a criminal. When Vishal (Arjun Kapoor) is planted in Yashwardhan's world in place of Ajay (Arjun Kapoor), the lawmakers (Rishi Kapoor and Prithviraj) roll the dice and a sequence of events unravel - something much more than what Vishal bargained for, as he finds himself in a predicament that puts him to the test. Aurangzeb is all about a world where Kingship knows no Kinship and where there can be only one Emperor. Written by Official Source
Tagline: To bring down a criminal, the law will have to think like a criminal.
Director: Atul Sabharwal
Writing By: Atul Sabharwal,
Produced By: Aditya Chopra,Sudhanshu Kumar,Yogendra Mogre,Aashish Singh,
Music: Vipin Mishra Amartya Rahut
Cast:
Arjun Kapoor as Ajay / Vishal
Prithviraj Sukumaran as Arya
Jackie Shroff as Yashwardhan
Rishi Kapoor as Ravikant
Sasha Aagha as Ritu
Tanvi Azmi as
Swara Bhaskar as
Rasika Dugal as
Jayant Gadekar as Baldev Singh
Anupam Kher as
Trailers:
Theatrical Version



Details
Name:Aurangzeb (2013) Hindi 720p BluRay mHD x264 AC3 DD 5.1 -NhaNc3
Description:
Aurangzeb (2013) Hindi 720p BluRay mHD x264 AC3 DD 5.1 -NhaNc3  

fbe317aa6af4357a9feffc94452bea1e.jpg

Format                                   : Matroska
Format version                           : Version 2
File size                                : 2.73 GiB
Duration                                 : 2 h 17 min
Overall bit rate                         : 2 843 kb/s
Encoded date                             : UTC 2013-07-08 22:46:13
Writing application                      : mkvmerge v4.9.1 ('Ich will') built on Jul 11 2011 23:53:15
Writing library                          : libebml v1.2.1 + libmatroska v1.1.1

Video
ID                                       : 1
Format                                   : AVC
Format/Info                              : Advanced Video Codec
Format profile                           : High@L4.1
Format settings                          : CABAC / 8 Ref Frames
Format settings, CABAC                   : Yes
Format settings, ReFrames                : 8 frames
Codec ID                                 : V_MPEG4/ISO/AVC
Duration                                 : 2 h 17 min
Bit rate                                 : 2 464 kb/s
Width                                    : 1 280 pixels
Height                                   : 544 pixels
Display aspect ratio                     : 2.35:1
Frame rate mode                          : Constant
Frame rate                               : 24.000 FPS
Color space                              : YUV
Chroma subsampling                       : 4:2:0
Bit depth                                : 8 bits
Scan type                                : Progressive
Bits/(Pixel*Frame)                       : 0.147
Stream size                              : 2.31 GiB (85%)
Writing library                          : x264 core 130 r2273 b3065e6
Language                                 : English
Default                                  : Yes
Forced                                   : No
Color range                              : Limited
Color primaries                          : BT.709
Transfer characteristics                 : BT.709
Matrix coefficients                      : BT.709

Audio
ID                                       : 2
Format                                   : AC-3
Format/Info                              : Audio Coding 3
Codec ID                                 : A_AC3
Duration                                 : 2 h 17 min
Bit rate mode                            : Constant
Bit rate                                 : 384 kb/s
Channel(s)                               : 6 channels
Channel positions                        : Front: L C R, Side: L R, LFE
Sampling rate                            : 48.0 kHz
Frame rate                               : 31.250 FPS (1536 SPF)
Bit depth                                : 16 bits
Compression mode                         : Lossy
Stream size                              : 377 MiB (14%)
Language                                 : English
Service kind                             : Complete Main
Default                                  : Yes
Forced                                   : Yes

Text
ID                                       : 3
Format                                   : UTF-8
Codec ID                                 : S_TEXT/UTF8
Codec ID/Info                            : UTF-8 Plain Text
Language                                 : English
Default                                  : Yes
Forced                                   : No

Menu
00:00:00.000                             : en:00:00:00.000
00:08:31.000                             : en:00:08:31.000
00:16:18.333                             : en:00:16:18.333
00:23:53.416                             : en:00:23:53.416
00:32:31.333                             : en:00:32:31.333
00:35:35.125                             : en:00:35:35.125
00:43:47.208                             : en:00:43:47.208
00:46:55.833                             : en:00:46:55.833
00:48:52.666                             : en:00:48:52.666
00:58:46.125                             : en:00:58:46.125
01:06:32.208                             : en:01:06:32.208
01:14:02.250                             : en:01:14:02.250
01:15:34.208                             : en:01:15:34.208
01:21:48.791                             : en:01:21:48.791
01:30:16.208                             : en:01:30:16.208
01:42:32.000                             : en:01:42:32.000
01:47:06.833                             : en:01:47:06.833
02:11:51.125                             : en:02:11:51.125
02:13:41.833                             : en:02:13:41.833

356fff8bc3c8da9938e20f3f4f9a7fe3.jpg
Category:Movies > Bollywood
Lang:Hindi
Total Size:2.73 GB





|| Download This Movie Via Single Resumable Links Size: 2.73 GB ||

Direct-1 Google Drive | Direct-2 | Direct-3 |

Watch Online Click Here

Post a Comment

0 Comments