B.A. Pass (2012) Hindi 720p BluRay mHD x264 AC3 DD 5.1 -NhaNc3


Poster
1e57b717033fa89a3274b268695f6a9c.jpg


iMDB
Imdb Picture Title: B.A. Pass
Year: 2012
Runtime: 95 minutes
Votes: 2655
Rating: 6.5/10
Language: Hindi
Country: India
All Genres: Crime, Drama
Plot Outline: A young boy is seduced by a woman who later turns him into a gigolo (male prostitute).
Director: Ajay Bahl
Writing By: Ritesh Shah,Ritesh Shah,
Produced By: Ajay Bahl,Inderajit Darshan,Shyam Rawat,Simran Sawhney,Narendra Singh,Tonga Talkies,Edwin Williams,
Music: Alokananda Dasgupta
Cast:
Shadab Kamal as Mukesh
Shilpa Shukla as Sarika
Dibyendu Bhattacharya as Johnny
Shikha Joshi as
Vijay Kaushik as Phupha ji
Padam Mishra as
Deepti Naval as Mrs. Suhasini
Anula Navlekar as Chotti
Happy Ranjit as Phd
Amit Sharma as Amit
Trailers:
B.A Pass Official Trailer

 
 

Details
Name:B.A. Pass (2012) Hindi 720p BluRay mHD x264 AC3 DD 5.1 -NhaNc3
Description:
B.A. Pass (2012) Hindi 720p BluRay mHD x264 AC3 DD 5.1 -NhaNc3

79170de8a6553fe5b5f0541c952797ea.jpg

Format                                   : Matroska
Format version                           : Version 2
File size                                : 1.97 GiB
Duration                                 : 1 h 39 min
Overall bit rate                         : 2 831 kb/s
Encoded date                             : UTC 2014-07-10 15:03:58
Writing application                      : mkvmerge v4.9.1 ('Ich will') built on Jul 11 2011 23:53:15
Writing library                          : libebml v1.2.1 + libmatroska v1.1.1

Video
ID                                       : 1
Format                                   : AVC
Format/Info                              : Advanced Video Codec
Format profile                           : High@L4.1
Format settings                          : CABAC / 8 Ref Frames
Format settings, CABAC                   : Yes
Format settings, ReFrames                : 8 frames
Codec ID                                 : V_MPEG4/ISO/AVC
Duration                                 : 1 h 39 min
Bit rate                                 : 2 425 kb/s
Width                                    : 1 280 pixels
Height                                   : 544 pixels
Display aspect ratio                     : 2.35:1
Frame rate mode                          : Constant
Frame rate                               : 24.000 FPS
Color space                              : YUV
Chroma subsampling                       : 4:2:0
Bit depth                                : 8 bits
Scan type                                : Progressive
Bits/(Pixel*Frame)                       : 0.145
Stream size                              : 1.66 GiB (84%)
Writing library                          : x264 core 130 r2273 b3065e6
Language                                 : English
Default                                  : Yes
Forced                                   : No
Color range                              : Limited
Color primaries                          : BT.709
Transfer characteristics                 : BT.709
Matrix coefficients                      : BT.709

Audio
ID                                       : 2
Format                                   : AC-3
Format/Info                              : Audio Coding 3
Codec ID                                 : A_AC3
Duration                                 : 1 h 39 min
Bit rate mode                            : Constant
Bit rate                                 : 384 kb/s
Channel(s)                               : 6 channels
Channel positions                        : Front: L C R, Side: L R, LFE
Sampling rate                            : 48.0 kHz
Frame rate                               : 31.250 FPS (1536 SPF)
Bit depth                                : 16 bits
Compression mode                         : Lossy
Stream size                              : 273 MiB (14%)
Language                                 : English
Service kind                             : Complete Main
Default                                  : Yes
Forced                                   : Yes

Text
ID                                       : 3
Format                                   : PGS
Codec ID                                 : S_HDMV/PGS
Codec ID/Info                            : Picture based subtitle format used on BDs/HD-DVDs
Title                                    : ==DOM==
Language                                 : English
Default                                  : Yes
Forced                                   : No

e2b3f047b19d19ff16cce5e0f1daee05.jpg
Category:Movies > Bollywood
Lang:Hindi
Total Size:1.97 GB



|| Download This Movie Via Single Resumable Links Size: 1.97 GB ||

Direct-1 Google Drive | Direct-2 | Direct-3 |

Watch Online Click Here

Post a Comment

0 Comments