Badmaash Company (2010) Hindi 720p BluRay mHD x264 AC3 DD 5.1 -NhaNc3


Poster
dfaeeb57dfde6f2bae95eef9bdd3c6fc.jpg


iMDB
Imdb Picture Title: Badmaa$h Company
Year: 2010
Runtime: 142 minutes
Votes: 5285
Rating: 6.0/10
Language: Hindi, English
Country: India
All Genres: Comedy, Crime, Drama
Plot Outline: BADMAASH COMPANY is a story set in the 1990s, of four ordinary middle-class Bombay youngsters - Karan (Shahid Kapoor), Bulbul (Anushka Sharma), Zing (Meiyang Chang) and Chandu (Vir Das) - who came together to start an import business. With their larger than life schemes, the four go on a wild roller-coaster ride into the world of sheer glitz and glamour where the stakes are high and risks even higher. Written by Official Source
Tagline: They did all the wrong things... The right way!
Director: Parmeet Sethi
Writing By: Parmeet Sethi,Parmeet Sethi,
Produced By: Padam Bhushan,Aditya Chopra,Rachvin Narula,Sri Rao,Shaun Rogers,Aashish Singh,Gurpreet Singh,
Music: Pritam Chakraborty Julius Packiam
Cast:
Shahid Kapoor as Karan S. Kapoor
Anushka Sharma as Bulbul Singh
Meiyang Chang as Tanzing 'Zing'
Vir Das as Chandu 'Papad'
Anupam Kher as Sajjan Kapoor
Kiran Juneja as Maya S. Kapoor
Pavan Malhotra as Jazz
Jameel Khan as Archie
Padam Bhushan as Gambler at casino
Raymond H. Blong as
Trailers:
Trailer

Details
Name:Badmaash Company (2010) Hindi 720p BluRay mHD x264 AC3 DD 5.1 -NhaNc3
Description:
Badmaash Company (2010) Hindi 720p BluRay mHD x264 AC3 DD 5.1 -NhaNc3 


dfaeeb57dfde6f2bae95eef9bdd3c6fc.jpg


Format                                   : Matroska
Format version                           : Version 2
File size                                : 2.19 GiB
Duration                                 : 2 h 21 min
Overall bit rate                         : 2 209 kb/s
Encoded date                             : UTC 2010-09-12 09:19:04
Writing application                      : mkvmerge v4.0.0 ('The Stars were mine') built on Jun  6 2010 16:18:42
Writing library                          : libebml v1.0.0 + libmatroska v1.0.0

Video
ID                                       : 1
Format                                   : AVC
Format/Info                              : Advanced Video Codec
Format profile                           : High@L4.1
Format settings                          : CABAC / 8 Ref Frames
Format settings, CABAC                   : Yes
Format settings, ReFrames                : 8 frames
Codec ID                                 : V_MPEG4/ISO/AVC
Duration                                 : 2 h 21 min
Bit rate                                 : 1 983 kb/s
Width                                    : 1 280 pixels
Height                                   : 544 pixels
Display aspect ratio                     : 2.35:1
Frame rate mode                          : Constant
Frame rate                               : 24.000 FPS
Color space                              : YUV
Chroma subsampling                       : 4:2:0
Bit depth                                : 8 bits
Scan type                                : Progressive
Bits/(Pixel*Frame)                       : 0.119
Stream size                              : 1.92 GiB (88%)
Writing library                          : x264 core 98 r1649 20cbe10
Language                                 : English
Default                                  : No
Forced                                   : No

Audio
ID                                       : 2
Format                                   : AC-3
Format/Info                              : Audio Coding 3
Codec ID                                 : A_AC3
Duration                                 : 2 h 21 min
Bit rate mode                            : Constant
Bit rate                                 : 224 kb/s
Channel(s)                               : 6 channels
Channel positions                        : Front: L C R, Side: L R, LFE
Sampling rate                            : 48.0 kHz
Frame rate                               : 31.250 FPS (1536 SPF)
Bit depth                                : 16 bits
Compression mode                         : Lossy
Stream size                              : 227 MiB (10%)
Language                                 : Hindi
Service kind                             : Complete Main
Default                                  : Yes
Forced                                   : No

Text
ID                                       : 3
Format                                   : UTF-8
Codec ID                                 : S_TEXT/UTF8
Codec ID/Info                            : UTF-8 Plain Text
Language                                 : English
Default                                  : Yes
Forced                                   : No





800439164f6e8390658a68712c942feb.jpg
Category:Movies > Bollywood
Lang:Hindi
Total Size:2.19 GB



|| Download This Movie Via Single Resumable Links Size: 2.19 GB ||

Direct-1 Google Drive | Direct-2 | Direct-3 |

Watch Online Click Here

Post a Comment

0 Comments