Baghban (2003) Hindi 720p BluRay mHD x264 AC3 DD 5.1 -NhaNc3


Poster
a93cb25655e8789430e7ec581176446b.jpg


iMDB
Imdb Picture Title: Baghban
Year: 2003
Runtime: 181 minutes
Votes: 12525
Rating: 7.5/10
Language: Hindi, Awadhi
Country: India
All Genres: Drama, Romance
Plot Outline: Raj Malhotra and wife Pooja have four sons. The sons have settled down professionally and are quite independent. However, when Raj Malhotra retires, none of his children want to be burdened with the responsibility of taking care of their parents. Strangely, it is the adopted son who proves to be the most kind hearted of them all. Salman's girlfriend eventually marries him. The question is, will Raj and Pooja's sons learn the folly of their ways and turn over a new leaf? Written by gavin@sunny_deol2009@yahoo.com
Tagline: Can you depend on your family?
Director: Ravi Chopra
Writing By: Shafiq Ansari,Satish Bhatnagar,B.R. Chopra,Ram Govind,Josephine Lawrence,Helen Leary,Nolan Leary,Achala Nagar,Achala Nagar,
Produced By: Ashwani Chopra,B.R. Chopra,
Music: Adesh Shrivastava Uttam Singh
Cast:
Amitabh Bachchan as Raj Malhotra
Hema Malini as Pooja Malhotra
Salman Khan as Alok Raj
Mahima Chaudhry as Arpita Raj
Aman Verma as Ajay Malhotra
Samir Soni as Sanjay Malhotra
Saahil Chadha as Rohit Malhotra
Nasir Khan as Karan Malhotra
Suman Ranganathan as Kiran Malhotra
Divya Dutta as Reena Malhotra

    

Details
Name:Baghban (2003) Hindi 720p BluRay mHD x264 AC3 DD 5.1 -NhaNc3
Description:
 Baghban (2003) Hindi 720p BluRay mHD x264 AC3 DD 5.1 -NhaNc3 

d2257f85d0727b629f60538770869606.png

Format                                   : Matroska
Format version                           : Version 2
File size                                : 2.81 GiB
Duration                                 : 2 h 58 min
Overall bit rate                         : 2 255 kb/s
Encoded date                             : UTC 2011-02-01 20:38:00
Writing application                      : mkvmerge v4.4.0 ('Die Wiederkehr') built on Oct 31 2010 21:52:48
Writing library                          : libebml v1.0.0 + libmatroska v1.0.0

Video
ID                                       : 1
Format                                   : AVC
Format/Info                              : Advanced Video Codec
Format profile                           : High@L4.1
Format settings                          : CABAC / 8 Ref Frames
Format settings, CABAC                   : Yes
Format settings, ReFrames                : 8 frames
Muxing mode                              : Header stripping
Codec ID                                 : V_MPEG4/ISO/AVC
Duration                                 : 2 h 58 min
Bit rate                                 : 1 934 kb/s
Width                                    : 1 280 pixels
Height                                   : 544 pixels
Display aspect ratio                     : 2.35:1
Frame rate mode                          : Constant
Frame rate                               : 24.000 FPS
Color space                              : YUV
Chroma subsampling                       : 4:2:0
Bit depth                                : 8 bits
Scan type                                : Progressive
Bits/(Pixel*Frame)                       : 0.116
Stream size                              : 2.35 GiB (84%)
Writing library                          : x264 core 112 r1867 22bfd31
Language                                 : English
Default                                  : Yes
Forced                                   : No
Color range                              : Limited
Color primaries                          : BT.709
Transfer characteristics                 : BT.709
Matrix coefficients                      : BT.709

Audio
ID                                       : 2
Format                                   : AC-3
Format/Info                              : Audio Coding 3
Muxing mode                              : Header stripping
Codec ID                                 : A_AC3
Duration                                 : 2 h 58 min
Bit rate mode                            : Constant
Bit rate                                 : 320 kb/s
Channel(s)                               : 6 channels
Channel positions                        : Front: L C R, Side: L R, LFE
Sampling rate                            : 48.0 kHz
Frame rate                               : 31.250 FPS (1536 SPF)
Bit depth                                : 16 bits
Compression mode                         : Lossy
Stream size                              : 408 MiB (14%)
Language                                 : Hindi
Service kind                             : Complete Main
Default                                  : Yes
Forced                                   : No

Text
ID                                       : 3
Format                                   : UTF-8
Codec ID                                 : S_TEXT/UTF8
Codec ID/Info                            : UTF-8 Plain Text
Default                                  : Yes
Forced                                   : No

Menu
00:00:00.000                             : en:00:00:00.000
00:03:19.417                             : en:00:03:19.417
00:14:59.667                             : en:00:14:59.667
00:22:09.542                             : en:00:22:09.542
00:30:27.167                             : en:00:30:27.167
00:34:44.292                             : en:00:34:44.292
00:39:16.000                             : en:00:39:16.000
00:44:21.750                             : en:00:44:21.750
00:51:30.167                             : en:00:51:30.167
01:02:25.792                             : en:01:02:25.792
01:11:18.750                             : en:01:11:18.750
01:18:46.208                             : en:01:18:46.208
01:28:37.708                             : en:01:28:37.708
01:31:12.750                             : en:01:31:12.750
01:40:24.833                             : en:01:40:24.833
01:50:06.750                             : en:01:50:06.750
01:57:18.125                             : en:01:57:18.125
02:02:10.917                             : en:02:02:10.917
02:06:55.625                             : en:02:06:55.625
02:11:50.917                             : en:02:11:50.917
02:18:18.833                             : en:02:18:18.833
02:27:46.833                             : en:02:27:46.833
02:37:59.917                             : en:02:37:59.917
02:40:49.792                             : en:02:40:49.792



8dcc4c3ed160e43268b1bd4ee52c64f5.jpg
Category:Movies > Bollywood
Lang:Hindi
Total Size:2.81 GB





|| Download This Movie Via Single Resumable Links Size: 2.81 GB ||

Direct-1 Google Drive | Direct-2 | Direct-3 |

Watch Online Click Here

Post a Comment

0 Comments