Band Baaja Baaraat (2010) Hindi 720p BluRay mHD x264 AC3 DD 5.1 -NhaNc3


Poster
e4bfafba117f0ac183777d070998d04f.jpg


iMDB
Imdb Picture Title: Band Baaja Baaraat
Year: 2010
Runtime: 139 minutes
Votes: 11599
Rating: 7.3/10
Language: Hindi, English, Panjabi
Country: India
All Genres: Comedy, Drama, Romance
Plot Outline: Shruti and Bittoo become partners in their very own "Wedding planning ka bijness" in Delhi and in the process discover friendship, love and one another.
Director: Maneesh Sharma
Writing By: Amitabh Bhattacharya,Habib Faisal,Maneesh Sharma,
Produced By: Aditya Chopra,Yash Chopra,Ravi Sarin,Sanjay Shivalkar,Aashish Singh,Gurpreet Singh,
Music: Salim Merchant Salim-Sulaiman
Cast:
Ranveer Singh as Bittoo Sharma
Anushka Sharma Kohli as Shruti Kakkar
Ranjit Batra as Father
Manu Rishi Chadha as Inspector
Manish Chaudhary as Sidhwani
Sushil Dahiya as Brigadier Brar
Shena Gamat as Chanda Narang
Andrew Hoffland as Tyre King
Manit Joura as
Kanksha as Preity
Trailers:
Trailer




Details
Name:Band Baaja Baaraat (2010) (1080p BluRay x265 HEVC 10bit AAC 5.1 Hindi
Description:
Band Baaja Baaraat (2010) Hindi 720p BluRay mHD x264 AC3 DD 5.1 -NhaNc3

e4bfafba117f0ac183777d070998d04f.jpg

Format                                   : Matroska
Format version                           : Version 2
File size                                : 2.14 GiB
Duration                                 : 2 h 23 min
Overall bit rate                         : 2 145 kb/s
Encoded date                             : UTC 2011-01-31 17:48:04
Writing application                      : mkvmerge v4.4.0 ('Die Wiederkehr') built on Oct 31 2010 21:52:48
Writing library                          : libebml v1.0.0 + libmatroska v1.0.0

Video
ID                                       : 1
Format                                   : AVC
Format/Info                              : Advanced Video Codec
Format profile                           : High@L4.1
Format settings                          : CABAC / 8 Ref Frames
Format settings, CABAC                   : Yes
Format settings, ReFrames                : 8 frames
Codec ID                                 : V_MPEG4/ISO/AVC
Duration                                 : 2 h 23 min
Bit rate                                 : 1 856 kb/s
Width                                    : 1 280 pixels
Height                                   : 544 pixels
Display aspect ratio                     : 2.35:1
Frame rate mode                          : Constant
Frame rate                               : 24.000 FPS
Color space                              : YUV
Chroma subsampling                       : 4:2:0
Bit depth                                : 8 bits
Scan type                                : Progressive
Bits/(Pixel*Frame)                       : 0.111
Stream size                              : 1.78 GiB (83%)
Writing library                          : x264 core 112 r1867 22bfd31
Language                                 : English
Default                                  : Yes
Forced                                   : No
Color range                              : Limited
Color primaries                          : BT.709
Transfer characteristics                 : BT.709
Matrix coefficients                      : BT.709

Audio
ID                                       : 2
Format                                   : AC-3
Format/Info                              : Audio Coding 3
Codec ID                                 : A_AC3
Duration                                 : 2 h 23 min
Bit rate mode                            : Constant
Bit rate                                 : 320 kb/s
Channel(s)                               : 6 channels
Channel positions                        : Front: L C R, Side: L R, LFE
Sampling rate                            : 48.0 kHz
Frame rate                               : 31.250 FPS (1536 SPF)
Bit depth                                : 16 bits
Compression mode                         : Lossy
Stream size                              : 327 MiB (15%)
Language                                 : English
Service kind                             : Complete Main
Default                                  : Yes
Forced                                   : Yes

Text #1
ID                                       : 3
Format                                   : VobSub
Codec ID                                 : S_VOBSUB
Codec ID/Info                            : Picture based subtitle format used on DVDs
Language                                 : English
Default                                  : Yes
Forced                                   : No

Text #2
ID                                       : 4
Format                                   : VobSub
Muxing mode                              : zlib
Codec ID                                 : S_VOBSUB
Codec ID/Info                            : Picture based subtitle format used on DVDs
Language                                 : Arabic
Default                                  : No
Forced                                   : No

Menu
00:00:00.000                             : en:00:00:00.000
00:04:00.583                             : en:00:04:00.583
00:07:36.000                             : en:00:07:36.000
00:10:42.042                             : en:00:10:42.042
00:17:06.708                             : en:00:17:06.708
00:20:11.292                             : en:00:20:11.292
00:24:25.583                             : en:00:24:25.583
00:29:37.125                             : en:00:29:37.125
00:36:02.208                             : en:00:36:02.208
00:40:49.708                             : en:00:40:49.708
00:48:28.167                             : en:00:48:28.167
00:53:02.500                             : en:00:53:02.500
00:58:39.917                             : en:00:58:39.917
01:03:50.000                             : en:01:03:50.000
01:10:28.333                             : en:01:10:28.333
01:14:27.125                             : en:01:14:27.125
01:23:53.042                             : en:01:23:53.042
01:30:53.042                             : en:01:30:53.042
01:34:12.000                             : en:01:34:12.000
01:39:22.708                             : en:01:39:22.708
01:46:18.125                             : en:01:46:18.125
01:48:44.875                             : en:01:48:44.875
01:54:20.958                             : en:01:54:20.958
01:59:57.958                             : en:01:59:57.958
02:07:57.125                             : en:02:07:57.125
02:15:19.667                             : en:02:15:19.667
02:19:18.000                             : en:02:19:18.000

fd896424d58d19d20c5969b6dd6cb1de.jpg
Category:Movies > Bollywood
Lang:Hindi
Total Size:2.14 GB



|| Download This Movie Via Single Resumable Links Size: 2.14 GB ||

Direct-1 Google Drive | Direct-2 | Direct-3 |

Watch Online Click Here

Post a Comment

0 Comments